<?xml version="1.0" standalone="no"?>
<!DOCTYPE svg PUBLIC "-//W3C//DTD SVG 1.1//EN" "http://www.w3.org/Graphics/SVG/1.1/DTD/svg11.dtd" >
<svg>
<metadata>
Created by FontForge 20110222 at Tue Jul  3 14:04:03 2012
 By Stefan Warting
SaytanaFive created by U Soe Win and PC Convared by Mahar Media.
</metadata>
<defs>
<font id="MyaKywarNyo11" horiz-adv-x="3" >
  <font-face 
    font-family="MyaKywarNyo_11"
    font-weight="400"
    font-stretch="normal"
    units-per-em="1000"
    panose-1="0 0 4 0 0 0 0 0 0 0"
    ascent="800"
    descent="-200"
    x-height="377"
    bbox="-784 -360 1015 800"
    underline-thickness="20"
    underline-position="-123"
    unicode-range="U+0020-2019"
  />
<missing-glyph horiz-adv-x="500" 
d="M63 0v800h375v-800h-375zM125 63h250v675h-250v-675z" />
    <glyph glyph-name=".notdef" horiz-adv-x="500" 
d="M63 0v800h375v-800h-375zM125 63h250v675h-250v-675z" />
    <glyph glyph-name=".null" horiz-adv-x="0" 
 />
    <glyph glyph-name="nonmarkingreturn" horiz-adv-x="392" 
 />
    <glyph glyph-name="space" unicode=" " horiz-adv-x="392" 
 />
    <glyph glyph-name="exclam" unicode="!" horiz-adv-x="392" 
d="M328 206q3 50 -47 78q-43 24 -105 24q-87 0 -133 -51q-10 -12 -24 -2q-12 8 -1 26q59 99 160 97q73 -1 122.5 -52t49.5 -124q0 -74 -49.5 -123t-123.5 -49h-88q-45 0 -45 -20q0 -10 20 -16q14 -4 27 -4h94q67 0 67 -53v-166q0 -31 34 -31q7 0 17 3.5t13 3.5
q9 0 16.5 -7.5t7.5 -16.5q0 -18 -19 -21q-33 -5 -62 15.5t-29 53.5v169q0 18 -45 18h-94q-70 0 -70 75q0 67 72 67h84q60 0 101 22q53 29 50 84z" />
    <glyph glyph-name="quotedbl" unicode="&#x22;" horiz-adv-x="392" 
d="M175 308q-55 0 -99 -24q-54 -29 -54 -78q0 -25 19 -49.5t43 -34.5q0 39 26 62t65 23q40 0 66.5 -22.5t26.5 -62.5q62 24 62 82q0 51 -55 80q-44 24 -100 24zM352 204q0 -74 -51 -125t-125 -51t-126 51t-50 125q2 77 50.5 125.5t124.5 48.5q77 0 127 -48.5t50 -125.5z
M247 123q0 15 -30 25q-23 7 -42 7q-20 0 -42 -7q-30 -10 -30 -25q0 -19 72 -19t72 19z" />
    <glyph glyph-name="numbersign" unicode="#" horiz-adv-x="392" 
d="M0 204q0 72 51 122.5t124 51.5q99 2 158 -97q11 -18 -1 -26q-14 -10 -24 2q-46 51 -133 51q-57 0 -100 -23q-53 -29 -53 -81q0 -51 53 -80q44 -23 100 -24l83 -1q21 0 44 -22q28 -26 28 -64q0 -27 -21 -42.5t-49 -15.5h-138q-45 0 -45 -17q0 -10 20 -16q14 -4 27 -4h72
q27 0 46 -12q23 -14 23 -41v-94q0 -31 34 -31q7 0 17 3.5t13 3.5q9 0 16.5 -7.5t7.5 -16.5q0 -18 -19 -21q-33 -5 -62 15.5t-29 53.5v82q0 10 -19 17q-15 5 -28 5h-72q-28 0 -49 18t-21 46q0 49 68 49h138q41 0 41 20t-39 20h-88q-73 0 -123.5 51t-50.5 125z" />
    <glyph glyph-name="dollar" unicode="$" horiz-adv-x="392" 
d="M187 293q-2 -20 52 -20q42 0 42 20q0 7 -11.5 13.5t-30.5 6.5q-50 0 -52 -20zM239 242q-30 0 -51 20.5t-21 50.5t20.5 47.5t51.5 17.5q28 0 51 -21q60 -55 62 -153q1 -73 -51 -124.5t-125 -51.5q-74 0 -125 51t-51 125q0 114 82 169q6 4 14 4q12 0 21.5 -10.5t9.5 -22.5
q0 -15 -14 -23q-96 -55 -91 -117q-2 -53 53 -79q43 -21 101 -21t101 21q55 26 53 79q3 34 -28 68q-19 -30 -63 -30zM179 -240q48 0 84 19q45 24 45 68t-46 68q-37 19 -85 19t-85 -19q-47 -24 -44 -68q-2 -44 45 -68q38 -19 86 -19zM174 -7q63 0 108 -42.5t45 -105.5
q0 -61 -43 -105t-105 -44q-63 0 -106.5 43t-43.5 106q0 61 42 104.5t103 43.5zM294 446q-10 -12 -26 -1l-232 155q-13 9 -13 26q0 14 12 27t26 13q16 0 27 -10l203 -182q15 -14 3 -28zM411 -32q29 0 50.5 -20.5t21.5 -49.5t-21 -49.5t-50 -20.5t-49.5 20.5t-20.5 49.5
t20 49.5t49 20.5zM412 -130q43 0 43 29t-43 29q-45 0 -43 -29t43 -29z" />
    <glyph glyph-name="percent" unicode="%" horiz-adv-x="800" 
d="M720 120q0 -50 -40 -86q-36 -33 -87 -32q-47 0 -86.5 30.5t-39.5 90.5q0 40 35 77q32 33 91 34q52 1 88 -31q39 -35 39 -83zM586 481l-349 -479l-66 -1l355 481zM306 364q0 -54 -41 -87t-86 -33q-43 0 -83 32t-40 90q0 42 35 77t87 35q47 0 87.5 -32.5t40.5 -81.5z
M658 122q0 22 -15.5 40t-47.5 17q-34 -1 -50 -18q-13 -10 -15 -14q-5 -9 -5 -29q0 -26 19 -43t51 -18q23 0 31.5 6t16.5 13q15 12 15 46zM249 365q0 24 -19.5 42t-49.5 18q-29 0 -47 -17t-18 -47q0 -27 19 -44t46 -17q30 0 49.5 18t19.5 47z" />
    <glyph glyph-name="ampersand" unicode="&#x26;" horiz-adv-x="392" 
d="M96 116q0 -11 82 -11q83 0 83 9q0 16 -35 24q-25 6 -48 6q-82 0 -82 -28zM352 -178q0 -35 15 -54q6 -9 26 -23q15 -9 15 -21q0 -22 -23 -22q-42 0 -54 53q-4 18 -4 67l1 384q0 53 -54 80q-42 22 -100 22q-60 0 -103 -25q-49 -28 -49 -79q0 -46 53 -78q6 30 38 50
q29 18 62 18q38 0 69 -22q35 -24 35 -61q0 -36 -33.5 -59.5t-70.5 -23.5q-74 0 -124.5 51t-50.5 125q0 73 49.5 123t122.5 51t126.5 -50t53.5 -124v-382z" />
    <glyph glyph-name="quotesingle" unicode="'" horiz-adv-x="392" 
d="M39 149h-1q5 9 16 6q8 -2 8 -16q0 -44 113 -44q34 0 66 8q47 12 47 36q0 22 -47 37q-37 11 -66 11q-22 0 -22 17t22 17q28 0 66 12q47 15 47 36q0 23 -47 35q-31 7 -66 7q-113 0 -113 -42q0 -2 7 -9t8 -11q2 -7 2 -11t-2 -6q-6 -6 -16 0q-27 17 -27 50q0 48 46 74
q39 22 95 22q51 0 92 -22q49 -27 49 -74q0 -45 -69 -77q69 -34 69 -79q0 -47 -49 -75q-41 -23 -92 -23q-55 0 -95 23q-46 27 -46 75q0 13 5 23z" />
    <glyph glyph-name="parenleft" unicode="(" horiz-adv-x="333" 
d="M303 590l-5 19q-105 -55 -177.5 -174t-72.5 -237t73 -237t177 -174l5 19q-86 48 -132 173q-37 102 -37 219q0 118 37 219q45 124 132 173z" />
    <glyph glyph-name="parenright" unicode=")" horiz-adv-x="333" 
d="M31 590l5 19q105 -55 177.5 -174t72.5 -237t-73 -237t-177 -174l-5 19q86 48 132 173q37 102 37 219q0 118 -37 219q-45 124 -132 173z" />
    <glyph glyph-name="asterisk" unicode="*" horiz-adv-x="392" 
d="M0 202q-2 72 51 124t125 52q74 0 126 -51t50 -125q-1 -51 -21 -95q-21 -47 -61 -74q-6 -4 -14 -4q-12 0 -21.5 10.5t-9.5 22.5q0 15 14 23q96 55 91 117q2 53 -53 79q-43 21 -101 21t-101 -21q-55 -26 -53 -79q-5 -62 91 -117q14 -8 14 -23q0 -12 -9.5 -22.5t-21.5 -10.5
q-8 0 -14 4q-40 27 -61 74q-20 44 -21 95z" />
    <glyph glyph-name="plus" unicode="+" horiz-adv-x="564" 
d="M256 404h54v-174h174v-55h-174v-175h-54v175h-176v55h176v174z" />
    <glyph glyph-name="comma" unicode="," horiz-adv-x="726" 
d="M270 372q39 -26 60.5 -73.5t21.5 -97.5q0 -37 61 -72q55 -32 95 -32q58 0 100 22q54 28 54 80q0 50 -49 78q-42 24 -103 24q-7 0 -19.5 -2t-18.5 -2q-15 0 -27 11t-12 26q0 23 25 37q11 6 52 6q74 0 125 -51t51 -125q0 -73 -53 -123.5t-127 -50.5q-55 0 -99 34.5
t-63 87.5q-17 -54 -64 -88t-104 -34q-74 0 -126 51t-50 125q1 51 21.5 96.5t60.5 72.5q6 4 14 4q12 0 21.5 -10.5t9.5 -22.5q0 -15 -14 -23q-96 -55 -91 -117q-2 -53 53 -79q43 -21 101 -21t100 21q55 27 55 79q0 63 -92 117q-14 8 -14 23q0 12 9.5 22.5t21.5 10.5
q8 0 14 -4z" />
    <glyph glyph-name="hyphen" unicode="-" horiz-adv-x="160" 
d="M130 224v-45h-129l-1 45h130z" />
    <glyph glyph-name="hyphen" unicode="&#x2010;" horiz-adv-x="160" 
d="M130 224v-45h-129l-1 45h130z" />
    <glyph glyph-name="period" unicode="." 
d="M-207 298q29 0 50.5 -20.5t21.5 -49.5t-21 -49.5t-50 -20.5t-49.5 20.5t-20.5 49.5t20 49.5t49 20.5zM-206 200q43 0 43 29t-43 29q-45 0 -43 -29t43 -29z" />
    <glyph glyph-name="slash" unicode="/" horiz-adv-x="250" 
d="M88 123q0 -51 -1 -54q-4 -21 -24 -21h-21q-6 1 -11 9.5t-5 10.5q0 4 25 24q11 9 11 31v162q0 22 -11 31q-25 20 -25 24q0 1 4.5 10t11.5 10h21q20 0 24 -21q1 -3 1 -54v-162zM116 123v162q0 51 1 54q5 21 24 21h21q16 -3 16 -20q0 -4 -25 -24q-11 -9 -11 -31v-162
q0 -22 11 -31q25 -20 25 -24q0 -2 -5 -10.5t-11 -9.5h-21q-19 0 -24 21q-1 3 -1 54z" />
    <glyph glyph-name="zero" unicode="0" horiz-adv-x="500" 
d="M172 378q73 1 126.5 -50t53.5 -124q0 -74 -51 -125t-125 -51t-125 51t-51 125q0 73 49.5 123t122.5 51zM176 104q61 0 103 24q49 28 49 78q0 52 -54 80q-42 22 -100 22q-57 0 -100 -22q-55 -28 -52 -80q-2 -53 53 -80q43 -22 101 -22z" />
    <glyph glyph-name="one" unicode="1" horiz-adv-x="500" 
d="M11 127q-11 18 1 26q14 10 24 -2q48 -53 133 -53q62 0 105 25q50 29 47 83q3 50 -47 78q-43 24 -105 24q-87 0 -133 -51q-10 -12 -24 -2q-12 8 -1 26q59 99 160 97q73 -1 122.5 -52t49.5 -124t-49.5 -123t-122.5 -51q-100 -2 -160 99z" />
    <glyph glyph-name="two" unicode="2" horiz-adv-x="500" 
d="M177 -300q-70 0 -123 54.5t-53 124.5q0 12 9 12q12 0 12 -13q0 -42 63 -76q53 -28 92 -28q57 0 99 22q52 28 52 80v502h28v-504q0 -77 -51 -125.5t-128 -48.5z" />
    <glyph glyph-name="three" unicode="3" horiz-adv-x="500" 
d="M259 -256q4 -5 4 -13q0 -13 -9.5 -22t-22.5 -9q-20 0 -28 17l-192 410q-5 11 -4 18q1 5 5 8q14 9 24 -2q48 -53 133 -53q62 0 105 25q50 29 47 83q3 50 -47 78q-43 24 -105 24q-87 0 -133 -51q-10 -12 -24 -2q-12 8 -1 26q58 97 160 97q73 0 122.5 -51t49.5 -125
q0 -73 -49.5 -122.5t-122.5 -51.5q-59 -1 -106 32z" />
    <glyph glyph-name="four" unicode="4" horiz-adv-x="500" 
d="M84 -256l194 316q-47 -33 -106 -32q-73 2 -122.5 51.5t-49.5 122.5q0 74 49.5 125t122.5 51q102 0 160 -97q11 -18 -1 -26q-14 -10 -24 2q-46 51 -133 51q-57 0 -100 -22q-55 -28 -52 -80q-3 -55 50 -84q43 -24 102 -24q85 0 133 53q10 11 24 2q4 -3 5 -8q1 -7 -4 -18
l-192 -410q-8 -17 -28 -17q-13 0 -22.5 9t-9.5 22q0 8 4 13z" />
    <glyph glyph-name="five" unicode="5" horiz-adv-x="500" 
d="M21 -122q0 -42 63 -76q53 -28 92 -28q58 0 98 20q53 26 53 78v320q0 56 -50 88q-44 28 -103 28q-52 0 -91 -17q-45 -19 -59 -55q37 26 74 26q36 0 66 -20q32 -23 32 -58q0 -36 -30.5 -57t-67.5 -21t-66 27q-32 30 -32 71q0 73 49.5 123t122.5 51t125 -48.5t52 -122.5
v-330q0 -78 -47.5 -127.5t-125.5 -49.5q-70 0 -123 54.5t-53 124.5q0 12 9 12q12 0 12 -13zM23 184q0 -31 75 -31q23 0 45 6q33 8 33 25t-33 25q-22 6 -45 6q-22 0 -44 -6q-31 -8 -31 -25z" />
    <glyph glyph-name="six" unicode="6" horiz-adv-x="500" 
d="M24 201q0 -54 53 -81q41 -21 101 -21q53 0 98 24q54 29 54 78q0 29 -63 52q-52 19 -87.5 19t-63.5 21t-28 56t28 56t64 21t64 -21t28 -56q0 -9 -9 -9t-9 9q0 31 -74 31q-22 0 -43 -6q-31 -9 -31 -25q0 -31 74 -31q48 0 111 -33q71 -38 71 -81q0 -75 -53 -125.5
t-129 -50.5q-73 0 -126.5 50t-53.5 122v321q0 78 47.5 127.5t125.5 49.5q82 0 129 -48.5t47 -130.5q0 -12 -9 -12q-12 0 -12 13q0 51 -55 80q-44 24 -100 24q-58 0 -98 -20q-52 -26 -52 -78z" />
    <glyph glyph-name="seven" unicode="7" horiz-adv-x="500" 
d="M80 60q-13 0 -25 9q-55 40 -55 135q0 73 49.5 123t122.5 51t126.5 -50t53.5 -124q0 -59 -42 -113q-38 -49 -66 -83q-38 -62 -38 -142q0 -61 36 -90q20 -16 26 -22q8 -9 5 -23q-6 -31 -45 -31q-26 0 -49 34q-18 28 -23 58q-4 25 -4 54q0 115 68 194q24 24 69 72
q39 43 39 94q0 52 -54 80q-42 22 -100 22q-57 0 -100 -22q-55 -28 -52 -80q-2 -29 33 -57q15 -10 44 -32q11 -11 11 -25q0 -12 -9 -22t-21 -10z" />
    <glyph glyph-name="eight" unicode="8" horiz-adv-x="392" 
d="M0 202q-2 72 51 124t125 52q74 0 126 -51t50 -125q-1 -51 -21 -95q-21 -47 -61 -74q-6 -4 -14 -4q-12 0 -21.5 10.5t-9.5 22.5q0 15 14 23q96 55 91 117q2 53 -53 79q-43 21 -101 21t-101 -21q-55 -26 -53 -79q-5 -62 91 -117q14 -8 14 -23q0 -12 -9.5 -22.5t-21.5 -10.5
q-8 0 -14 4q-40 27 -61 74q-20 44 -21 95z" />
    <glyph glyph-name="nine" unicode="9" horiz-adv-x="500" 
d="M24 205l-1 -325q0 -52 52 -78q40 -20 98 -20q56 0 100 24q55 29 55 80q0 13 12 13q9 0 9 -12q0 -82 -47 -130.5t-129 -48.5q-79 0 -126 49t-47 128v321q0 72 53.5 122t126.5 50q75 0 128.5 -51t53.5 -125q0 -42 -72 -80q-63 -34 -110 -34q-22 0 -43 -6q-31 -9 -31 -25
q0 -31 74 -31q22 0 43 6q31 9 31 25q0 9 9 9t9 -9q0 -35 -28 -56t-64 -21t-64 21t-28 56t28 56t63.5 21t87.5 20q63 23 63 51q0 50 -54 78q-44 24 -98 24q-60 0 -101 -21q-53 -27 -53 -81z" />
    <glyph glyph-name="colon" unicode=":" horiz-adv-x="62" 
d="M289 608q6 -11 -7 -17q-9 -3 -16 6q-23 30 -55 39q-19 5 -63 5q-42 0 -81 -26q-43 -29 -43 -69v-341q0 -31 11 -81t11 -66q0 -12 -9.5 -21.5t-21.5 -9.5q-31 0 -31 31q0 23 8 71.5t8 73.5v345q0 44 -44 68q-37 19 -84 19q-48 0 -85 -19q-44 -25 -44 -69q0 -34 29 -51
q8 -5 23 -13.5t22 -12.5q15 -13 15 -25q0 -23 -25 -23q-13 0 -25 10q-57 48 -57 113q0 62 42 105.5t103 43.5q45 0 83.5 -24t56.5 -65q41 95 136 95q97 0 143 -92z" />
    <glyph glyph-name="semicolon" unicode=";" horiz-adv-x="181" 
d="M69 358q29 0 50.5 -20.5t21.5 -49.5t-21 -49.5t-50 -20.5t-49.5 20.5t-20.5 49.5t20 49.5t49 20.5zM70 260q43 0 43 29t-43 29q-45 0 -43 -29t43 -29zM69 181q29 0 50.5 -20.5t21.5 -49.5t-21 -49.5t-50 -20.5t-49.5 20.5t-20.5 49.5t20 49.5t49 20.5zM70 83q43 0 43 29
t-43 29q-45 0 -43 -29t43 -29z" />
    <glyph glyph-name="less" unicode="&#x3c;" horiz-adv-x="62" 
d="M572 -240q48 0 84 19q45 24 45 68t-46 68q-37 19 -85 19t-85 -19q-47 -24 -44 -68q-2 -44 45 -68q38 -19 86 -19zM567 -7q63 0 108 -42.5t45 -105.5q0 -61 -43 -105t-105 -44q-92 0 -134 82q-13 -78 -75 -78h-285q-78 0 -78 99v802q0 53 14 74q18 25 66 25h576
q48 0 67 -27q15 -22 15 -72v-45q0 -14 -13 -14q-11 0 -11 14v44q-6 30 -58 30h-578q-56 0 -56 -28v-802q0 -30 56 -30h283q61 0 61 30v46q0 62 42 104.5t103 42.5z" />
    <glyph glyph-name="equal" unicode="=" horiz-adv-x="564" 
d="M469 149v-54h-404v54h404zM469 311v-55h-404v55h404z" />
    <glyph glyph-name="greater" unicode="&#x3e;" horiz-adv-x="62" 
d="M242 -240q48 0 84 19q45 24 45 68t-46 68q-37 19 -85 19t-85 -19q-47 -24 -44 -68q-2 -44 45 -68q38 -19 86 -19zM237 -7q63 0 108 -42.5t45 -105.5q0 -61 -43 -105t-105 -44q-92 0 -134 82q1 -29 -12 -51q-15 -26 -43 -26q-21 0 -37 19t-16 52v829q0 53 14 74
q18 25 66 25h246q48 0 67 -27q15 -22 15 -72v-45q0 -14 -13 -14q-11 0 -11 14v44q-6 30 -58 30h-248q-56 0 -56 -28v-802q0 -38 29 -38q16 0 28.5 11t12.5 27v46q0 62 42 104.5t103 42.5z" />
    <glyph glyph-name="question" unicode="?" horiz-adv-x="250" 
d="M87 47q27 0 33 11q4 5 4 10q0 4 -25 24q-11 9 -11 31v162q0 22 11 31q25 20 25 24q0 5 -4 10q-6 10 -33 10h-24q-27 0 -33 -10q-4 -5 -4 -10q0 -4 25 -24q11 -9 11 -31v-162q0 -22 -11 -31q-25 -20 -25 -24q0 -5 4 -10q6 -11 33 -11h24z" />
    <glyph glyph-name="at" unicode="@" horiz-adv-x="843" 
d="M406 82q55 0 55 64q0 10 -5 30.5t-5 30.5q0 12 5.5 34.5t5.5 34.5q0 50 -54 50q-56 0 -56 -49q0 -12 5.5 -34t5.5 -34q0 -10 -5 -30.5t-5 -30.5q0 -66 53 -66zM627 27q-63 -1 -63 38q0 5 1 11q7 34 46 30l16 -2q61 0 103 24q49 28 49 78q0 52 -54 80q-42 22 -100 22
q-127 0 -151 -104q-2 -7 4 -28q10 -38 10 -58q0 -88 -82 -88q-80 0 -80 90q0 14 3 29q2 10 7.5 30t3.5 27q-24 104 -151 104q-58 0 -100 -22q-54 -28 -54 -80q0 -50 49 -78q42 -24 103 -24q2 0 8 2l8 1q40 5 46 -30q3 -17 -10 -31t-31 -16t-21 -2q-74 0 -125 51t-51 125
q0 73 53 122.5t127 49.5q93 0 145 -81q-2 34 18 57.5t54 23.5q35 0 53.5 -23.5t16.5 -59.5q52 81 145 83q73 1 126.5 -50t53.5 -124q0 -74 -51 -125t-125 -52zM177 -225q17 -12 11 -29q-7 -19 -29 -12q-35 11 -55 52q-17 35 -16 76q2 58 42.5 97.5t98.5 39.5q57 0 98 -45
t41 -92q0 -23 -5 -64q-4 -30 43 -30q43 0 43 29l1 124q1 78 63 78h150q9 0 26 3.5t25 3.5q22 0 22 -18q0 -19 -29 -33q-24 -12 -45 -12h-149q-35 0 -35 -22v-125q0 -29 -21.5 -49.5t-50.5 -20.5q-30 0 -50.5 21t-21.5 51q0 11 5 29.5t5 26.5q2 41 -38 66q-33 20 -77 20
q-45 0 -78 -20q-39 -24 -39 -66q0 -27 21 -47q3 -3 44 -32z" />
    <glyph glyph-name="A" unicode="A" horiz-adv-x="392" 
d="M0 204q2 103 72 158q13 10 20 1q7 -7 7 -21q0 -26 26 -41q23 -13 50 -13q29 0 50 12q26 15 26 42q0 14 7 21q7 9 20 -1q70 -55 72 -158q1 -73 -51 -125.5t-125 -50.5q-73 1 -124 52.5t-50 123.5zM328 204q0 31 -17.5 60t-44.5 42q-5 -30 -33 -48.5t-60 -17.5t-58 18.5
t-31 47.5q-36 -17 -53 -58q-9 -20 -9 -44q0 -51 49 -77q43 -23 105 -23q59 0 100 20q52 27 52 80z" />
    <glyph glyph-name="B" unicode="B" horiz-adv-x="62" 
d="M372 700q13 0 24 -10t11 -25q0 -34 -35 -34h-295q-55 0 -55 -57v-772q0 -30 55 -30h582q58 0 58 30v366l22 4v-371q0 -99 -78 -99h-584q-78 0 -78 99v806q0 42 9 59q17 33 71 33z" />
    <glyph glyph-name="C" unicode="C" horiz-adv-x="726" 
d="M20 336q-11 -9 -19 1q-7 9 2 19q19 22 47 22q68 0 68 -60q0 -47 -59 -68q-36 -12 -37 -47q-2 -52 53 -79q43 -21 101 -21t100 21q55 27 55 79q0 63 -92 117q-14 8 -14 23q0 12 9.5 22.5t21.5 10.5q8 0 14 -4q39 -26 60.5 -73.5t21.5 -97.5q0 -37 61 -72q55 -32 95 -32
q58 0 100 22q54 28 54 80q0 50 -49 78q-42 24 -103 24q-7 0 -19.5 -2t-18.5 -2q-15 0 -27 11t-12 26q0 23 25 37q11 6 52 6q74 0 125 -51t51 -125q0 -73 -53 -123.5t-127 -50.5q-55 0 -99 34.5t-63 87.5q-17 -54 -64 -88t-104 -34q-74 0 -125 51t-51 125q0 35 22 56l57 36
q19 12 19 23q0 24 -48 24q-23 0 -30 -6z" />
    <glyph glyph-name="D" unicode="D" 
d="M-206 516q-37 0 -48 -2q-26 -5 -26 -24q0 -26 74 -26t74 26q0 19 -26 24q-12 2 -48 2zM-52 551q0 -62 -45.5 -106t-108.5 -44t-107.5 43.5t-44.5 106.5q0 64 43.5 106t108.5 42q66 0 110 -43t44 -105zM-114 489q40 25 40 63q0 44 -46 68q-37 19 -85 19q-46 0 -86 -20
q-48 -25 -48 -67q0 -39 41 -63q-3 10 0 22q11 48 92 48t92 -48q3 -12 0 -22z" />
    <glyph glyph-name="E" unicode="E" horiz-adv-x="392" 
d="M122 171q-22 5 -34 5q-55 0 -55 -15q0 -10 30 -30q51 -34 106 -34q52 0 62 9q-54 52 -109 65zM171 26q-68 0 -118 43q-53 45 -53 112q0 28 27 43q23 13 61 13q60 0 112 -61q40 -47 56 -63q16 6 36 24q28 25 28 46q0 28 -65 40q-25 4 -77 13q-82 31 -82 79q0 61 80 61
q19 0 38 -12q23 -13 23 -30q0 -16 -15 -21q-18 20 -46 20q-54 0 -54 -19q0 -13 51 -30q17 -3 49.5 -10.5t48.5 -11.5q79 -27 79 -81q0 -66 -46 -112q10 -10 21 -19q13 -14 13 -22q0 -9 -7.5 -15.5t-15.5 -6.5q-7 0 -15 6q-11 11 -30 32q-34 -18 -99 -18z" />
    <glyph glyph-name="F" unicode="F" 
d="M-272 615q0 -26 19 -33q11 -4 40 -4q26 0 52 -15.5t36 -38.5q9 -20 -12 -20q-5 0 -9 5q-11 23 -62 21q-34 -1 -42 -4q-21 -8 -21 -36t21 -36q10 -4 42 -5q51 -2 62 21q6 8 16 3q12 -6 5 -17q-26 -54 -81 -54q-37 0 -62.5 26t-23.5 63q1 35 27 65q-24 22 -26 58
q-1 34 21.5 57.5t56.5 23.5q50 0 74 -49q1 -2 1 -5q0 -12 -10 -12q-7 0 -10 4q-10 21 -56 19q-28 -1 -39 -5q-19 -7 -19 -32z" />
    <glyph glyph-name="G" unicode="G" 
d="M-205 -240q48 0 84 19q45 24 45 68t-46 68q-37 19 -85 19q-49 0 -85 -19q-47 -24 -44 -68q-2 -45 45 -68q37 -19 86 -19zM-210 -7q63 0 108 -42.5t45 -105.5q0 -61 -43 -105t-105 -44q-63 0 -106.5 43t-43.5 106q0 61 42 104.5t103 43.5z" />
    <glyph glyph-name="H" unicode="H" 
d="M-204 592q29 0 50.5 -20.5t21.5 -49.5t-21 -49.5t-50 -20.5t-49.5 20.5t-20.5 49.5t20 49.5t49 20.5zM-203 494q43 0 43 29t-43 29q-45 0 -43 -29t43 -29z" />
    <glyph glyph-name="I" unicode="I" 
d="M-181 -233v233h30v-184q0 -18 15 -34.5t33 -9.5q5 2 10 2q13 0 25.5 -11.5t12.5 -24.5q0 -37 -50 -37q-29 0 -52.5 19t-23.5 47zM-233 -233q0 -28 -24 -47t-52 -19q-50 0 -50 37q0 14 11.5 25t25.5 11q6 0 11 -2q17 -7 32.5 9t15.5 35v184h30v-233z" />
    <glyph glyph-name="J" unicode="J" 
d="M-87 446q-10 -12 -26 -1l-232 155q-13 9 -13 26q0 14 12 27t26 13q16 0 27 -10l203 -182q15 -14 3 -28z" />
    <glyph glyph-name="K" unicode="K" horiz-adv-x="70" 
d="M24 -178q0 -35 15 -54q6 -9 26 -23q15 -9 15 -21q0 -22 -23 -22q-42 0 -54 53q-4 18 -4 67l1 556h24v-556z" />
    <glyph glyph-name="L" unicode="L" horiz-adv-x="135" 
d="M0 -299v676h30v-676h-30zM90 -178q0 -35 15 -54q6 -9 26 -23q15 -9 15 -21q0 -22 -23 -22q-42 0 -54 53q-4 18 -4 67v556h25v-556z" />
    <glyph glyph-name="M" unicode="M" horiz-adv-x="62" 
d="M714 556v44q-6 30 -58 30h-578q-56 0 -56 -28v-802q0 -30 56 -30h580q58 0 58 30v366h22v-367q0 -99 -78 -99h-582q-78 0 -78 99v802q0 53 14 74q18 25 66 25h576q48 0 67 -27q15 -22 15 -72v-45q0 -14 -13 -14q-11 0 -11 14z" />
    <glyph glyph-name="N" unicode="N" horiz-adv-x="62" 
d="M78 630q-56 2 -56 -55v-729q0 -76 56 -76h250q58 0 58 66v330h22v-367q0 -99 -78 -99h-253q-77 0 -77 99v802q0 46 6 60q16 38 74 39q15 0 25.5 -10.5t10.5 -24.5q0 -36 -38 -35z" />
    <glyph glyph-name="O" unicode="O" horiz-adv-x="392" 
d="M168 25q74 0 127 51.5t53 124.5q0 74 -52 125.5t-126 51.5q-101 0 -159 -97q-11 -18 1 -26q14 -10 24 2q46 51 132 51q57 0 101 -23q53 -28 53 -81q0 -55 -52 -83q-42 -23 -102 -23q-84 0 -132 53q-11 12 -24 2q-12 -9 -12 -27v-329q0 -97 78 -97h192q46 0 66 45
q12 27 12 54q0 31 -23 63q-32 44 -90 44q-25 0 -37 -7q-18 -11 -18 -30q0 -14 10.5 -23.5t24.5 -9.5q10 0 18 5q24 15 45 15q19 0 35.5 -16t12.5 -32q-5 -18 -33 -29q-22 -9 -45 -9h-172q-54 0 -54 28v311q60 -84 146 -84z" />
    <glyph glyph-name="P" unicode="P" horiz-adv-x="843" 
d="M406 82q55 0 55 64q0 10 -5 30.5t-5 30.5q0 12 5.5 34.5t5.5 34.5q0 50 -54 50q-56 0 -56 -49q0 -12 5.5 -34t5.5 -34q0 -10 -5 -30.5t-5 -30.5q0 -66 53 -66zM627 27q-63 -1 -63 38q0 5 1 11q7 34 46 30l16 -2q61 0 103 24q49 28 49 78q0 52 -54 80q-42 22 -100 22
q-127 0 -151 -104q-2 -7 4 -28q10 -38 10 -58q0 -88 -82 -88q-80 0 -80 90q0 14 3 29q2 10 7.5 30t3.5 27q-24 104 -151 104q-58 0 -100 -22q-54 -28 -54 -80q0 -50 49 -78q42 -24 103 -24q2 0 8 2l8 1q40 5 46 -30q3 -17 -10 -31t-31 -16t-21 -2q-74 0 -125 51t-51 125
q0 73 53 122.5t127 49.5q93 0 145 -81q-2 34 18 57.5t54 23.5q35 0 53.5 -23.5t16.5 -59.5q52 81 145 83q73 1 126.5 -50t53.5 -124q0 -74 -51 -125t-125 -52z" />
    <glyph glyph-name="Q" unicode="Q" horiz-adv-x="100" 
d="M50 342q0 13 -10 25q-13 11 -26 11q-16 0 -26 -10.5t-10 -25.5q0 -22 11 -84.5t11 -97.5v-382l-91 45v175h-36v-223l127 -75h28v460q0 34 11 96t11 86zM-180 -233q0 -28 -24 -47t-52 -19q-50 0 -50 37q0 14 11.5 25t25.5 11q6 0 11 -2q17 -7 32.5 9t15.5 35v184h30v-233z
" />
    <glyph glyph-name="R" unicode="R" horiz-adv-x="100" 
d="M-206 -232q48 0 84 19q44 23 44 67q0 43 -46 67q-37 19 -84 19q-50 0 -88 -21q-43 -24 -40 -65q-2 -45 45 -68q36 -18 85 -18zM28 160v-460h-28l-94 57q-47 -53 -112 -53q-61 0 -104.5 43.5t-43.5 104.5t41.5 104t102.5 43q62 0 107 -42.5t45 -104.5q0 -21 -6 -39l64 -35
v382q0 35 -11 97.5t-11 84.5q0 15 10.5 25.5t25.5 10.5q14 0 25 -11t11 -25q0 -23 -11 -85t-11 -97z" />
    <glyph glyph-name="S" unicode="S" 
d="M-195 -233q0 -28 -24 -47t-52 -19q-50 0 -50 37q0 14 11.5 25t25.5 11q6 0 11 -2q17 -7 32.5 9t15.5 35v184h30v-233z" />
    <glyph glyph-name="T" unicode="T" 
d="M-203 -232q48 0 84 19q44 23 44 67q0 43 -46 67q-37 19 -84 19q-50 0 -88 -21q-43 -24 -40 -65q-2 -45 45 -68q36 -18 85 -18zM-503 -174q44 -38 84 -38q26 0 46 17t20 43q0 62 42 106.5t104 44.5t107 -42.5t45 -104.5q0 -60 -43 -104t-105 -44q-99 0 -138 90
q-27 -54 -91 -54q-65 0 -113 46q-9 9 -9 23q0 28 29 28q13 0 22 -11z" />
    <glyph glyph-name="U" unicode="U" horiz-adv-x="149" 
d="M74 -32q29 0 50.5 -20.5t21.5 -49.5t-21 -49.5t-50 -20.5t-49.5 20.5t-20.5 49.5t20 49.5t49 20.5zM75 -130q43 0 43 29t-43 29q-45 0 -43 -29t43 -29z" />
    <glyph glyph-name="V" unicode="V" horiz-adv-x="392" 
d="M264 -26q9 0 17.5 7.5t8.5 18.5q0 27 -26 27l-92 1q-74 1 -123 50.5t-49 123.5t49.5 125t122.5 51q103 0 161 -97q11 -18 -1 -26q-14 -10 -24 2q-46 51 -134 51q-57 0 -100 -22q-55 -28 -52 -80q-3 -55 50 -85q42 -23 102 -23h88q32 0 55 -24t23 -56q0 -29 -24.5 -53.5
t-53.5 -24.5h-82q-55 0 -104 24q-22 11 -35 11q-21 0 -21 -32v-145q0 -20 19 -25q8 -3 36 -3h186q22 0 46 9q29 11 34 29q5 16 -12 32t-36 16q-21 0 -45 -15q-8 -5 -18 -5q-13 0 -24 10t-11 23q0 29 32 35q10 2 23 2q58 0 90 -44q23 -32 23 -63q0 -36 -21 -66
q-22 -33 -57 -33q-209 -1 -210 0q-75 0 -75 99v172q0 44 34 44q13 0 30 -9q59 -32 118 -32h82z" />
    <glyph glyph-name="W" unicode="W" horiz-adv-x="100" 
d="M50 342q0 15 -10.5 25.5t-25.5 10.5q-14 0 -25 -11t-11 -25q0 -22 11 -84.5t11 -97.5v-382l-91 45l-36 -48l127 -75h28v460q0 34 11 96t11 86zM-216 -232q48 0 84 19q44 23 44 67q0 43 -46 67q-37 19 -84 19q-50 0 -88 -21q-43 -24 -40 -65q-2 -45 45 -68q36 -18 85 -18z
M-516 -174q44 -38 84 -38q26 0 46 17t20 43q0 63 41.5 106.5t104.5 44.5q61 1 106.5 -43t45.5 -104t-43 -104t-105 -44q-99 0 -138 90q-27 -54 -91 -54q-65 0 -113 46q-9 9 -9 23q0 28 29 28q13 0 22 -11z" />
    <glyph glyph-name="X" unicode="X" horiz-adv-x="392" 
d="M333 281q11 -18 -1 -26q-14 -10 -24 2q-46 51 -135 51q-57 0 -100 -22q-55 -28 -52 -80q-3 -55 50 -84q43 -24 102 -24q81 0 121 36q10 9 20 9q27 0 27 -35v-309q0 -99 -78 -99h-185q-46 0 -66 45q-12 27 -12 54q0 31 23 63q32 44 90 44q25 0 37 -7q18 -11 18 -30
q0 -14 -10.5 -23.5t-24.5 -9.5q-10 0 -18 5q-24 15 -45 15q-17 0 -34.5 -16t-13.5 -32q5 -18 33 -29q22 -9 45 -9h163q44 0 54 28v277q0 16 -6 16q-2 0 -6 -3q-38 -33 -61 -44q-33 -17 -73 -16q-67 2 -119.5 54.5t-52.5 119.5q0 73 50 124.5t122 51.5q104 0 162 -97z" />
    <glyph glyph-name="Y" unicode="Y" 
d="M-80 -32q29 0 50.5 -20.5t21.5 -49.5t-21 -49.5t-50 -20.5t-49.5 20.5t-20.5 49.5t20 49.5t49 20.5zM-79 -130q43 0 43 29t-43 29q-45 0 -43 -29t43 -29z" />
    <glyph glyph-name="Z" unicode="Z" horiz-adv-x="432" 
d="M291 300q-72 3 -72 -22q0 -20 75 -20q56 0 56 22q0 17 -59 20zM317 223q-15 -3 -27 -3q-29 0 -58 18q-32 19 -32 47q0 13 10 20q-16 2 -24 0q-45 -4 -77 -30q-35 -28 -35 -71q0 -51 53 -80q44 -24 100 -24q64 0 95 22q20 14 34 -1q15 -16 -8 -41q-16 -16 -39 -28
q-42 -22 -82 -22q-74 0 -124.5 50t-50.5 124q0 73 51 123.5t124 50.5q46 0 100 -28q62 -33 62 -75q0 -27 -40 -43q36 -8 49 -38q5 -11 2 -22t-15 -11q-13 0 -22 17q-12 24 -13 25q-9 12 -33 20z" />
    <glyph glyph-name="bracketleft" unicode="[" horiz-adv-x="726" 
d="M354 203q0 -73 -51.5 -124.5t-124.5 -51.5t-126.5 52t-51.5 125q1 51 21.5 96.5t60.5 72.5q6 4 14 4q12 0 21.5 -10.5t9.5 -22.5q0 -15 -14 -23q-96 -55 -91 -117q-2 -53 53 -79q43 -21 101 -21t100 21q55 27 55 79q0 63 -92 117q-14 8 -14 23q0 12 9.5 22.5t21.5 10.5
q8 0 14 -4q51 -34 74 -117q19 53 63 87t99 35q72 2 126 -50t54 -124q0 -74 -51 -125t-125 -51q-41 0 -52 6q-25 14 -25 37q0 15 12 26t27 11q6 0 18.5 -2t19.5 -2q61 0 103 24q49 28 49 78q0 52 -54 80q-42 22 -100 22q-57 0 -101 -23q-53 -29 -53 -82z" />
    <glyph glyph-name="backslash" unicode="\" horiz-adv-x="556" 
d="M239 105q59 3 59 20q0 22 -56 22q-75 0 -75 -20q0 -25 72 -22zM239 301q-72 3 -72 -22q0 -20 75 -20q56 0 56 22q0 17 -59 20zM318 243q-28 -22 -80 -22q-29 0 -58 18q-32 19 -32 47q0 13 10 20h-16q-47 0 -82 -27q-38 -30 -38 -76q0 -45 37 -74t83 -29h16q-10 7 -10 20
q0 28 32 48q29 17 58 17q31 0 61 -13q38 -16 38 -42q0 -41 -64 -74q-56 -29 -101 -28q-72 2 -123 53t-51 123q0 73 50.5 122.5t123.5 51.5q45 1 94 -23q53 -27 68 -66q95 0 95 -91v-170h-36v167q0 24 -27 37q-22 11 -48 11zM307 699q57 0 100 -35.5t50 -90.5q2 -14 -9 -14
q-8 0 -11 11q-19 70 -130 70q-50 0 -88 -21q-43 -24 -40 -65q-1 -39 45 -65q39 -23 81 -23q49 0 96 -22q53 -25 68 -66q46 -70 46 -178v-172h-41v172q0 166 -93 199q-25 9 -74 9q-59 0 -102.5 42.5t-43.5 101.5q0 61 42.5 104t103.5 43z" />
    <glyph glyph-name="bracketright" unicode="]" horiz-adv-x="333" 
d="M178 540q55 -4 55 -50q0 -28 -22.5 -45.5t-49.5 -11.5q-70 15 -70 101q0 38 37.5 83t74.5 59l8 -19q-30 -18 -42.5 -30.5t-25.5 -36.5t-13 -40q0 -13 15 -13l16 2q4 0 10 1h7z" />
    <glyph glyph-name="asciicircum" unicode="^" horiz-adv-x="278" 
d="M224 541h49l-221 -693h-50z" />
    <glyph glyph-name="underscore" unicode="_" horiz-adv-x="564" 
d="M121 326l38 39l123 -123l123 123l39 -39l-123 -123l124 -124l-39 -38l-123 124l-125 -125l-39 39l125 124z" />
    <glyph glyph-name="grave" unicode="`" horiz-adv-x="62" 
d="M714 556v44q-6 30 -58 30h-578q-56 0 -56 -28v-802q0 -30 56 -30h397q58 0 58 30v201h22v-202q0 -99 -78 -99h-399q-78 0 -78 99v802q0 53 14 74q18 25 66 25h576q48 0 67 -27q15 -22 15 -72v-45q0 -14 -13 -14q-11 0 -11 14zM621 -233q0 -28 24 -47t52 -19q50 0 50 37
q0 14 -11.5 25t-25.5 11q-6 0 -11 -2q-18 -7 -33 9.5t-15 34.5v184h-30v-233z" />
    <glyph glyph-name="a" unicode="a" horiz-adv-x="392" 
d="M303 127q0 26 -68 28q-22 1 -47 -6q-34 -9 -34 -26q0 -14 20 -17q13 -2 61 -2q16 0 38 5q30 7 30 18zM235 207q48 0 75 -29q21 -23 23 -51q-61 -99 -158 -97q-74 1 -124.5 51t-50.5 123q0 72 51 122.5t124 51.5q99 2 158 -97q11 -18 -1 -26q-14 -10 -24 2q-46 51 -133 51
q-57 0 -100 -23q-53 -29 -53 -81q0 -80 115 -101q-10 14 -10 31q0 36 38 56q31 17 70 17z" />
    <glyph glyph-name="b" unicode="b" horiz-adv-x="726" 
d="M648 206q0 52 -54 80q-42 22 -100 22q-62 0 -103 -25q-49 -30 -49 -80q0 -76 -48.5 -126t-123.5 -50q-101 0 -159 97q-11 18 1 26q14 10 24 -2q46 -51 133 -51q57 0 99 24q52 30 52 82q0 55 -51 81q-40 21 -100 21q-87 0 -133 -51q-10 -12 -24 -2q-12 8 -1 26
q59 100 158 100q55 0 99 -31t63 -82q47 110 161 113q72 2 126 -50t54 -124q0 -74 -51 -125t-125 -51q-41 0 -52 6q-25 14 -25 37q0 15 12 26t27 11q6 0 18.5 -2t19.5 -2q61 0 103 24q49 28 49 78z" />
    <glyph glyph-name="c" unicode="c" horiz-adv-x="392" 
d="M117 207q38 0 70 -17q38 -21 38 -56q0 -17 -10 -31q115 21 115 101q0 52 -53 81q-43 23 -100 23q-87 0 -133 -51q-10 -12 -24 -2q-12 8 -1 26q59 99 158 97q74 -1 124.5 -51t50.5 -123q0 -74 -50 -123.5t-125 -50.5q-97 -2 -158 97q2 28 23 50t50 28q12 2 25 2zM49 127
q0 -11 29 -18q22 -5 39 -5q48 0 61 2q20 3 20 17q0 16 -34 25q-26 8 -47 7q-68 -2 -68 -28z" />
    <glyph glyph-name="d" unicode="d" 
d="M-224 700q62 2 106 -41.5t44 -106.5q0 -62 -43.5 -106t-105.5 -44t-106 44t-44 106t43 104t106 44zM-223 467q48 0 84 18q45 23 45 67t-45 68q-37 20 -85 20q-49 0 -86 -19q-47 -25 -44 -69q-2 -45 45 -67q36 -18 86 -18z" />
    <glyph glyph-name="e" unicode="e" horiz-adv-x="392" 
d="M160 123q0 44 -68 44q-51 0 -63 -39q17 -36 130 -36q1 9 1 31zM320 150q0 11 -51 34q-80 35 -93 43q-58 34 -72 52q-10 13 -10 41t28 44q23 14 53 14q29 0 53 -14q28 -17 28 -44q0 -11 -11 -11q-13 0 -13 11q0 23 -57 23t-57 -23q0 -14 11 -22t48 -23q17 -6 51 -19
q124 -51 124 -132q0 -91 -161 -96l13 -240q4 -68 24 -84q-12 -3 -22 -3q-42 0 -56 43q-3 9 -3 39q0 41 5 122.5t5 122.5q-58 0 -101 19q-56 26 -56 77q0 39 28 67t67 28q41 0 68 -27t27 -68v-32q66 0 91 8q39 13 39 50z" />
    <glyph glyph-name="f" unicode="f" 
d="M-213 469q13 0 23 -10t10 -23t-10 -23t-23 -10q-59 0 -103.5 45t-44.5 104q0 61 41.5 104t102.5 43q57 0 100 -35.5t50 -90.5q2 -14 -9 -14q-8 0 -11 11q-19 70 -128 70q-50 0 -88 -21q-43 -24 -40 -65q-1 -40 47 -65q39 -20 83 -20z" />
    <glyph glyph-name="g" unicode="g" horiz-adv-x="62" 
d="M0 548q0 44 -44 68q-37 19 -84 19q-48 0 -85 -19q-44 -25 -44 -69q0 -34 29 -51q8 -5 23 -13.5t22 -12.5q15 -13 15 -25q0 -23 -25 -23q-13 0 -25 10q-57 48 -57 113q0 62 42 105.5t103 43.5q63 0 108.5 -43t45.5 -105v-341q0 -31 11 -81t11 -66q0 -12 -9.5 -21.5
t-21.5 -9.5q-31 0 -31 31q0 23 8 71.5t8 73.5v345z" />
    <glyph glyph-name="h" unicode="h" 
d="M-93 -32q29 0 50.5 -20.5t21.5 -49.5t-21 -49.5t-50 -20.5t-49.5 20.5t-20.5 49.5t20 49.5t49 20.5zM-92 -130q43 0 43 29t-43 29q-45 0 -43 -29t43 -29z" />
    <glyph glyph-name="i" unicode="i" horiz-adv-x="392" 
d="M175 100q87 0 133 51q10 12 24 2q12 -8 1 -26q-59 -99 -158 -97q-74 1 -124.5 51t-50.5 123q0 72 51 122.5t124 51.5q99 2 158 -97q11 -18 -1 -26q-14 -10 -24 2q-46 51 -133 51q-57 0 -100 -23q-53 -29 -53 -81q0 -51 53 -80q44 -24 100 -24z" />
    <glyph glyph-name="j" unicode="j" horiz-adv-x="62" 
d="M384 556v44q-6 30 -58 30h-248q-56 0 -56 -28v-802q0 -30 56 -30h250q58 0 58 30v366h22v-367q0 -99 -78 -99h-252q-78 0 -78 99v802q0 53 14 74q18 25 66 25h246q48 0 67 -27q15 -22 15 -72v-45q0 -14 -13 -14q-11 0 -11 14z" />
    <glyph glyph-name="k" unicode="k" 
d="M-219 -233q0 -28 24 -47t52 -19q50 0 50 37q0 14 -12 25t-26 11q-5 0 -10 -2q-18 -7 -33 9.5t-15 34.5v184h-30v-233z" />
    <glyph glyph-name="l" unicode="l" 
d="M-227 -300v298h-36v-298h36zM-185 -233q0 -28 24 -47t52 -19q50 0 50 37q0 14 -12 25t-26 11q-5 0 -10 -2q-18 -7 -33 9.5t-15 34.5v184h-30v-233z" />
    <glyph glyph-name="m" unicode="m" horiz-adv-x="322" 
d="M258 208q0 51 -50 79q-41 23 -96 23q-61 0 -103 -24q-49 -28 -49 -78q-10 -7 -17 -7q-5 0 -5 5q0 73 49.5 122.5t122.5 49.5q72 0 121.5 -50t50.5 -122q2 -73 -50.5 -125.5t-125.5 -52.5q-41 0 -52 6q-25 14 -25 37q0 15 12 26t27 11q6 0 18.5 -2t19.5 -2q57 0 100 23
q52 28 52 81z" />
    <glyph glyph-name="n" unicode="n" horiz-adv-x="726" 
d="M633 -120q39 -22 39 -81q0 -26 -15 -54q-24 -45 -76 -45h-503q-78 0 -78 99v327q0 18 12 27q13 10 24 -2q48 -53 132 -53q62 0 105 25q50 29 47 83q3 50 -47 78q-43 24 -105 24q-86 0 -132 -51q-10 -12 -24 -2q-12 8 -1 26q58 97 159 97q74 0 124 -51t48 -125
q-1 -52 52 -81q44 -24 100 -24q58 0 100 22q54 28 54 80q0 50 -49 78q-42 24 -103 24q-7 0 -19.5 -2t-18.5 -2q-15 0 -27 11t-12 26q0 23 25 37q11 6 52 6q74 0 125 -51t51 -125t-53 -125t-127 -49q-114 3 -161 113q-18 -51 -63 -82t-99 -31q-90 0 -147 82v-311
q4 -28 56 -28h494q22 0 47 9q31 11 31 29q0 22 -37 44q-12 7 -3 22q9 14 23 6z" />
    <glyph glyph-name="o" unicode="o" horiz-adv-x="726" 
d="M648 199q0 50 -49 78q-42 24 -103 24q-7 0 -19.5 -2t-18.5 -2q-15 0 -27 11t-12 26q0 23 25 37q11 6 52 6q74 0 125 -51t51 -125t-53 -125t-127 -49q-114 3 -161 113q-18 -51 -63 -82t-99 -31q-99 0 -158 100q-11 18 1 26q14 10 24 -2q46 -51 133 -51q60 0 101 23
q53 28 50 83q3 53 -51 80q-42 22 -100 22q-87 0 -133 -51q-10 -12 -24 -2q-12 8 -1 26q58 97 159 97q74 0 124 -51t48 -125q-1 -52 52 -81q44 -24 100 -24q58 0 100 22q54 28 54 80z" />
    <glyph glyph-name="p" unicode="p" horiz-adv-x="386" 
d="M166 378q75 2 127.5 -49t52.5 -125t-53 -126t-127 -50q-61 1 -107 35.5t-59 92.5q-5 24 14 48q-20 21 -14 46q14 57 60 92t106 36zM168 98q57 0 101 24q53 30 53 82q0 50 -50 79q-43 25 -104 25q-114 0 -141 -58q-5 -12 -4 -19q1 -1 2.5 -3.5t1.5 -4.5q29 44 84 44
q31 0 53 -17t22 -47q0 -29 -22.5 -46.5t-52.5 -17.5q-55 0 -84 44q0 -1 -1.5 -3.5t-2.5 -4.5q-1 -7 4 -19q27 -58 141 -58zM108 177q14 0 34 7q25 8 25 19q0 10 -25 19q-21 7 -34 7q-54 0 -72 -25q20 -27 72 -27z" />
    <glyph glyph-name="q" unicode="q" horiz-adv-x="726" 
d="M331 267q19 49 63.5 79.5t97.5 31.5q72 2 126 -50t54 -124q0 -74 -51 -125t-125 -51q-55 0 -100 31t-65 83q-49 -114 -155 -114q-49 0 -104 29q-64 33 -64 77q0 85 124 85t124 -84q0 -9 -3 -18q75 23 75 86q0 53 -53 82q-43 23 -100 23q-59 0 -102 -24q-28 -16 -41 -37
q-8 -12 -19 -6q-10 6 -4 20q52 117 166 117q52 0 94.5 -31t61.5 -80zM132 169q-99 0 -99 -34q0 -17 43 -26q30 -7 56 -7q55 0 67 2q32 6 32 31q0 34 -99 34zM496 104q61 0 103 24q49 28 49 78q0 52 -54 80q-42 22 -100 22q-60 0 -103 -25q-49 -28 -49 -79q0 -52 54 -79
q42 -21 100 -21z" />
    <glyph glyph-name="r" unicode="r" horiz-adv-x="392" 
d="M0 204q1 51 21.5 96.5t60.5 72.5q6 4 14 4q12 0 21.5 -10.5t9.5 -22.5q0 -15 -14 -23q-96 -55 -91 -117q-3 -56 62 -82q0 39 26 62t65 23q40 0 66.5 -22.5t26.5 -62.5q65 26 62 82q5 62 -91 117q-14 8 -14 23q0 12 9.5 22.5t21.5 10.5q8 0 14 -4q40 -27 60.5 -72.5
t21.5 -96.5q2 -72 -51 -124t-125 -52q-74 0 -126 51t-50 125zM247 123q0 15 -30 25q-23 7 -42 7q-20 0 -42 -7q-30 -10 -30 -25q0 -19 72 -19t72 19z" />
    <glyph glyph-name="s" unicode="s" horiz-adv-x="100" 
d="M50 342q0 13 -10 25q-13 11 -26 11q-16 0 -26 -10.5t-10 -25.5q0 -22 11 -84.5t11 -97.5v-382l-91 45v175h-36v-223l127 -75h28v460q0 34 11 96t11 86z" />
    <glyph glyph-name="t" unicode="t" horiz-adv-x="632" 
d="M432 151q-43 0 -46 -1q-28 -4 -29 -23q-2 -20 28 -25q6 -1 47 -1q71 0 69 26q-1 18 -27 23q-6 1 -42 1zM335 143q12 42 97 42q71 0 86 -42q3 -9 3 -15q47 24 47 76t-53 81q-43 23 -100 23q-55 0 -80 -6q-45 -11 -59 -45q-12 -29 -63 -52q69 -34 69 -79q0 -47 -49 -75
q-41 -23 -92 -23q-55 0 -95 23q-46 27 -46 75q0 34 20 29q8 -2 8 -16q0 -44 113 -44q34 0 66 8q47 12 47 36q0 22 -47 37q-37 11 -66 11q-22 0 -22 17t22 17q28 0 66 12q47 15 47 36q0 23 -47 35q-31 7 -66 7q-113 0 -113 -42q0 -2 7 -9t8 -11q2 -7 2 -11t-2 -6q-6 -6 -16 0
q-27 17 -27 50q0 48 46 74q39 22 95 22q43 0 81 -16q45 -20 56 -56q54 70 137 72q73 1 125 -50t52 -124q0 -75 -50.5 -125.5t-125.5 -50.5q-34 0 -59 29t-25 64q0 12 3 22z" />
    <glyph glyph-name="u" unicode="u" horiz-adv-x="726" 
d="M270 33q-6 -4 -14 -4q-12 0 -21.5 10.5t-9.5 22.5q0 15 14 23q92 54 92 117q0 52 -55 79q-42 21 -100 21t-101 -21q-55 -26 -53 -79q-5 -62 91 -117q14 -8 14 -23q0 -12 -9.5 -22.5t-21.5 -10.5q-8 0 -14 4q-40 27 -61 74q-20 44 -21 95q-2 72 51 124t125 52
q57 0 104 -34t64 -88q19 53 63 87t99 35q72 2 126 -50t54 -124q0 -74 -51 -125t-125 -51q-41 0 -52 6q-25 14 -25 37q0 15 12 26t27 11q6 0 18.5 -2t19.5 -2q61 0 103 24q49 28 49 78q0 52 -54 80q-42 22 -100 22q-40 0 -95 -32q-61 -35 -61 -72q0 -50 -21 -96
q-22 -49 -61 -75z" />
    <glyph glyph-name="v" unicode="v" horiz-adv-x="726" 
d="M176 28q-74 0 -125 51t-51 125t49.5 124t122.5 50q75 0 125 -51.5t50 -126.5q0 -52 54 -80q42 -22 100 -22q62 0 105 24q50 28 47 78q2 53 -53 80q-43 22 -101 22q-44 0 -68 -10q-7 -3 -15 -3q-12 0 -22 8.5t-10 20.5q0 15 18 31q33 29 97 29q74 0 125 -51t51 -125
t-49.5 -124t-122.5 -50q-75 0 -129.5 50t-54.5 124q0 38 -55 73q-50 33 -90 33q-57 0 -100 -22q-55 -28 -52 -80q-2 -53 53 -80q43 -22 101 -22q41 0 65 10q7 3 15 3q12 0 22 -8.5t10 -20.5q0 -15 -18 -31q-33 -29 -94 -29z" />
    <glyph glyph-name="w" unicode="w" horiz-adv-x="726" 
d="M176 104q61 0 103 24q49 28 49 78q0 52 -54 80q-42 22 -100 22q-57 0 -100 -22q-55 -28 -52 -80q-2 -53 53 -80q43 -22 101 -22zM458 34q-25 14 -25 37q0 15 12 26t27 11q6 0 18.5 -2t19.5 -2q61 0 103 24q49 28 49 78q0 52 -54 80q-42 22 -100 22q-40 0 -95 -32
q-61 -35 -61 -72q0 -71 -51.5 -123.5t-124.5 -52.5q-74 0 -125 51t-51 125q0 73 49.5 122.5t122.5 51.5q58 1 105 -31t67 -87q19 52 63 84.5t99 33.5q72 2 126 -50t54 -124q0 -74 -51 -125t-125 -51q-41 0 -52 6z" />
    <glyph glyph-name="x" unicode="x" horiz-adv-x="726" 
d="M176 104q61 0 103 24q49 28 49 78q0 52 -54 80q-42 22 -100 22q-57 0 -100 -22q-55 -28 -52 -80q-2 -53 53 -80q43 -22 101 -22zM176 28q-74 0 -125 51t-51 125q0 73 49.5 122.5t122.5 51.5q56 1 102.5 -30.5t66.5 -83.5q17 53 61 83t100 31q72 2 126 -50t54 -124
q0 -74 -51 -125t-125 -51q-55 0 -100 31t-65 83q-21 -52 -65 -83t-100 -31zM506 104q61 0 103 24q49 28 49 78q0 52 -54 80q-42 22 -100 22q-57 0 -100 -22q-55 -28 -52 -80q-2 -53 53 -80q43 -22 101 -22z" />
    <glyph glyph-name="y" unicode="y" horiz-adv-x="392" 
d="M0 204q1 51 21.5 96.5t60.5 72.5q6 4 14 4q12 0 21.5 -10.5t9.5 -22.5q0 -15 -14 -23q-96 -55 -91 -117q-2 -53 53 -79q43 -21 101 -21t101 21q55 26 53 79q5 62 -91 117q-14 8 -14 23q0 12 9.5 22.5t21.5 10.5q8 0 14 -4q40 -27 60.5 -72.5t21.5 -96.5q2 -72 -51 -124
t-125 -52q-74 0 -126 51t-50 125z" />
    <glyph glyph-name="z" unicode="z" horiz-adv-x="392" 
d="M187 293q-2 -20 52 -20q42 0 42 20q0 7 -11.5 13.5t-30.5 6.5q-50 0 -52 -20zM239 242q-30 0 -51 20.5t-21 50.5t20.5 47.5t51.5 17.5q28 0 51 -21q60 -55 62 -153q1 -73 -51 -124.5t-125 -51.5q-74 0 -125 51t-51 125q0 114 82 169q6 4 14 4q12 0 21.5 -10.5t9.5 -22.5
q0 -15 -14 -23q-96 -55 -91 -117q-2 -53 53 -79q43 -21 101 -21t101 21q55 26 53 79q3 34 -28 68q-19 -30 -63 -30z" />
    <glyph glyph-name="braceleft" unicode="{" horiz-adv-x="392" 
d="M142 100h16q-10 7 -10 20q0 28 32 48q29 17 58 17q31 0 61 -13q38 -16 38 -42q0 -41 -64 -74q-56 -29 -101 -28q-72 2 -123 53t-51 123q0 73 50.5 122.5t123.5 51.5q45 1 101 -28q64 -33 64 -74q0 -26 -38 -42q-30 -13 -61 -13q-29 0 -58 18q-32 19 -32 47q0 13 10 20
h-16q-47 0 -82 -27q-38 -30 -38 -76q0 -45 37 -74t83 -29zM239 105q59 3 59 20q0 22 -56 22q-75 0 -75 -20q0 -25 72 -22zM239 301q-72 3 -72 -22q0 -20 75 -20q56 0 56 22q0 17 -59 20z" />
    <glyph glyph-name="bar" unicode="|" horiz-adv-x="392" 
d="M175 100q87 0 133 51q10 12 24 2q12 -8 1 -26q-59 -99 -158 -97q-74 1 -124.5 51t-50.5 123q0 72 51 122.5t124 51.5q99 2 158 -97q11 -18 -1 -26q-14 -10 -24 2q-46 51 -133 51q-57 0 -100 -23q-53 -29 -53 -81q0 -51 53 -80q44 -24 100 -24zM15 21q-8 11 4 19
q11 7 18 -3q25 -35 60 -45q25 -8 77 -6q47 1 100 20q20 7 33 7q34 0 34 -38v-176q0 -99 -75 -99h-188q-46 0 -66 45q-12 27 -12 54q0 31 23 63q32 44 90 44q25 0 37 -7q18 -11 18 -30q0 -14 -10.5 -23.5t-24.5 -9.5q-10 0 -18 5q-24 15 -45 15q-17 0 -34.5 -16t-13.5 -32
q5 -18 33 -29q22 -9 45 -9h166q47 0 53 28v158q0 19 -5 22q-4 1 -71 -22q-25 -9 -67 -10q-107 -3 -161 75z" />
    <glyph glyph-name="braceright" unicode="}" horiz-adv-x="333" 
d="M148 568q-55 4 -55 50q0 27 22.5 45t49.5 12q70 -15 70 -101q0 -38 -37 -83t-75 -59l-8 19q30 18 42.5 30.5t25.5 36.5t13 40v0q0 14 -18 13q-36 -2 -30 -3z" />
    <glyph glyph-name="asciitilde" unicode="~" horiz-adv-x="62" 
d="M384 556v44q-6 30 -58 30h-248q-56 0 -56 -28v-802q0 -30 56 -30h94q58 0 58 30v201h22v-202q0 -99 -78 -99h-96q-78 0 -78 99v802q0 53 14 74q18 25 66 25h246q48 0 67 -27q15 -22 15 -72v-45q0 -14 -13 -14q-11 0 -11 14zM318 -233q0 -28 24 -47t52 -19q50 0 50 37
q0 14 -11.5 25t-25.5 11q-6 0 -11 -2q-18 -7 -33 9.5t-15 34.5v184h-30v-233z" />
    <glyph glyph-name="exclamdown" unicode="&#xa1;" horiz-adv-x="392" 
d="M352 201q0 -75 -52 -124.5t-128 -49.5q-66 0 -119 55t-53 121q0 35 22 56l57 36q19 12 19 23q0 24 -48 24q-23 0 -30 -6q-11 -9 -19 1q-7 9 2 19q19 22 47 22q68 0 68 -60q0 -47 -59 -68q-36 -12 -37 -47q-2 -52 53 -79q43 -21 101 -21t100 21q55 27 55 79q0 63 -92 117
q-14 8 -14 23q0 12 9.5 22.5t21.5 10.5q8 0 14 -4q39 -26 60.5 -73.5t21.5 -97.5z" />
    <glyph glyph-name="cent" unicode="&#xa2;" 
d="M-488 -39q-8 -8 -16 1q-5 8 2 16q16 19 40 19q58 0 58 -51q0 -40 -51 -58q-30 -10 -31 -40q-2 -44 46 -67q36 -18 85 -18q48 0 85 18q47 24 47 67q0 31 -52 74q-37 30 -37 50q0 24 25 24q4 0 12 -4q69 -47 69 -145q0 -31 52 -62q47 -27 81 -27q48 0 85 19q46 24 46 68
t-45 68q-36 19 -84 19q-7 0 -21 -2q-6 -2 -11 -2q-13 0 -23 9.5t-10 22.5q0 19 21 31q9 5 44 5q61 0 105 -44t44 -105q0 -63 -45 -105.5t-108 -42.5q-45 0 -83.5 30t-53.5 73q-14 -46 -54.5 -74.5t-88.5 -28.5q-63 0 -106.5 43t-43.5 106q0 31 19 47q3 3 22 15q43 27 43 36
q0 20 -41 20q-19 0 -26 -5z" />
    <glyph glyph-name="sterling" unicode="&#xa3;" horiz-adv-x="726" 
d="M686 204q0 74 -53 125t-127 49q-55 -1 -99 -35t-63 -87q-17 54 -64 88t-104 34q-75 0 -125.5 -50.5t-50.5 -125.5q0 -54 20 -94q8 -16 27 -6q12 6 12 18q0 5 -4 9q-36 36 -33 73q-2 53 53 79q43 21 101 21q41 0 94 -29q60 -34 60 -71q0 -12 12 -12t12 12q0 38 59 74
q54 32 95 32q58 0 101 -23q55 -28 55 -81q0 -40 -33 -73q-4 -4 -4 -9q0 -12 12 -18q19 -10 27 6q20 42 20 94zM645 -277q-9 -22 -33 -22q-25 0 -45.5 20.5t-27.5 46.5q-3 14 -3 30q0 29 11 61q9 26 14 31q39 39 39 68q0 41 -44 65q-36 19 -81 19q-33 0 -76 -26
q-47 -28 -47 -59q0 -12 -10 -12t-10 12q0 30 -48 56q-42 24 -75 24q-46 0 -80 -17q-45 -22 -43 -63q-3 -30 26 -59q11 -11 -6 -21q-15 -9 -22 5q-16 31 -16 75q0 58 41.5 99.5t99.5 41.5q47 0 84 -27t51 -71q14 42 50 70t79 28q59 0 101.5 -40.5t42.5 -99.5q0 -52 -16 -75
q-36 -51 -36 -93q0 -29 19 -50q8 -9 15 -9q5 0 17 12t24 5t5 -25z" />
    <glyph glyph-name="currency" unicode="&#xa4;" horiz-adv-x="392" 
d="M342 -7q0 -42 11 -128t11 -129q0 -14 -10 -24t-24 -10t-24 10t-10 24q0 43 10.5 128.5t10.5 128.5v82q0 16 -6 16q-2 0 -6 -3q-38 -33 -61 -44q-33 -17 -73 -16q-67 2 -119.5 54.5t-52.5 119.5q0 73 50 124.5t122 51.5q104 0 162 -97q11 -18 -1 -26q-14 -10 -24 2
q-46 51 -135 51q-57 0 -100 -22q-55 -28 -52 -80q-3 -55 50 -84q43 -24 102 -24q81 0 121 36q10 9 20 9q27 0 27 -35z" />
    <glyph glyph-name="yen" unicode="&#xa5;" horiz-adv-x="392" 
d="M99 83q-45 0 -45 -18q0 -10 20 -16q14 -4 27 -4h96q27 0 46 -12q23 -14 23 -41v-220q0 -31 34 -31q7 0 17 3.5t13 3.5q9 0 16.5 -7.5t7.5 -16.5q0 -18 -19 -21q-33 -5 -62 15.5t-29 53.5v208q0 10 -19 17q-15 5 -28 5h-96q-28 0 -49 18t-21 46q0 49 68 49h162q12 0 27 5
q20 6 20 15q0 20 -45 20h-88q-175 0 -175 115q0 110 175 107q75 -1 106 -20q18 -11 52 -55q11 -14 -1 -21q-13 -8 -24 2q-28 25 -63 31q-17 3 -72 3q-2 0 -10 1h-15h-28q-98 0 -98 -48q0 -59 153 -59h84q22 0 44 -15q28 -20 28 -56q0 -27 -21 -42.5t-49 -15.5zM85 -184
q-22 0 -22 -9q0 -10 23 -10h48q35 0 35 -27v-32q0 -12 11 -15q10 -3 15 1q2 2 6 2q8 0 11 -8q5 -14 -9 -15q-17 -2 -31 8t-14 27v26q0 11 -24 11h-48q-14 0 -24.5 9.5t-10.5 23.5q0 24 34 24h81q24 0 24 10t-23 10h-44q-87 0 -87 58q0 54 87 54q49 0 79 -38q5 -6 0 -11
q-6 -3 -12 1q-17 16 -67 16h-49q-27 -3 -27 -22q0 -30 76 -30h42q36 0 36 -35q0 -29 -35 -29h-81z" />
    <glyph glyph-name="brokenbar" unicode="&#xa6;" 
d="M-510 -241q48 0 84 19q45 24 45 68t-46 68q-36 18 -85 18q-48 0 -85 -19q-47 -23 -44 -67q-2 -45 45 -68q37 -19 86 -19zM-510 -306q-62 0 -106 44t-44 106t42 104t104 44q48 1 87.5 -25.5t56.5 -71.5q14 45 51.5 70.5t85.5 26.5q62 2 107.5 -42t45.5 -106t-44 -106
t-106 -44q-46 0 -85 27t-55 70q-18 -44 -55.5 -70.5t-84.5 -26.5zM-230 -241q48 0 84 19q45 24 45 68q0 51 -61 74q-31 12 -70 12q-48 0 -85 -19q-47 -23 -44 -67q-2 -44 45 -68q38 -19 86 -19z" />
    <glyph glyph-name="section" unicode="&#xa7;" 
d="M-326 -140q-4 10 5.5 20.5t20.5 10.5q3 0 9 -2q11 -5 17 -14q13 -15 22 -15q15 0 15 43v96l33 1v-103q0 -72 -66 -72q-43 0 -56 35z" />
    <glyph glyph-name="dieresis" unicode="&#xa8;" 
d="M-206 -186q-37 0 -48 -2q-26 -5 -26 -24q0 -26 74 -26t74 26q0 19 -26 24q-12 2 -48 2zM-52 -151q0 -62 -45.5 -106t-108.5 -44t-107.5 43.5t-44.5 106.5q0 64 43.5 106t108.5 42q66 0 110 -43t44 -105zM-114 -213q40 25 40 63q0 44 -46 68q-37 19 -85 19q-46 0 -86 -20
q-48 -25 -48 -67q0 -39 41 -63q-3 10 0 22q11 48 92 48t92 -48q3 -12 0 -22z" />
    <glyph glyph-name="copyright" unicode="&#xa9;" 
d="M-290 -150q33 0 59 -14q32 -18 32 -48q0 -13 -8 -26q98 18 98 86q0 43 -46 68q-37 20 -84 20q-75 0 -113 -43q-9 -10 -21 -2q-10 7 -1 22q53 85 135 83q62 -1 105 -43.5t43 -104.5t-43 -104.5t-105 -43.5q-82 -2 -135 82q2 31 27 49.5t57 18.5zM-348 -218q0 -9 25 -15
q19 -4 33 -4q46 0 51 1q17 3 17 15q0 13 -29 21q-23 7 -39 6q-58 -2 -58 -24z" />
    <glyph glyph-name="ordfeminine" unicode="&#xaa;" horiz-adv-x="392" 
d="M330 551q0 -62 -45.5 -106t-108.5 -44t-107.5 43.5t-44.5 106.5q0 64 43.5 106t108.5 42q66 0 110 -43t44 -105zM177 639q-46 0 -87 -20q-50 -26 -47 -67q-2 -37 29 -57q1 3 8 14q30 50 94 50q52 7 91 -44q9 -12 14 -20q32 23 29 57q2 45 -45 68q-37 19 -86 19zM97 479
q49 -16 77 -15q35 2 52 7q13 4 28 8q-21 39 -77 36q-58 3 -80 -36zM173 25q74 0 127 51.5t53 124.5q0 74 -52 125.5t-126 51.5q-101 0 -159 -97q-11 -18 1 -26q14 -10 24 2q46 51 132 51q57 0 101 -23q53 -28 53 -81q0 -55 -52 -83q-42 -23 -102 -23q-84 0 -132 53
q-11 12 -24 2q-12 -9 -12 -27v-329q0 -97 78 -97h192q46 0 66 45q12 27 12 54q0 31 -23 63q-32 44 -90 44q-25 0 -37 -7q-18 -11 -18 -30q0 -14 10.5 -23.5t24.5 -9.5q10 0 18 5q24 15 45 15q19 0 35.5 -16t12.5 -32q-5 -18 -33 -29q-22 -9 -45 -9h-172q-54 0 -54 28v311
q60 -84 146 -84z" />
    <glyph glyph-name="guillemotleft" unicode="&#xab;" horiz-adv-x="150" 
d="M22 -202q0 -31 58 -30q13 0 24 -10t11 -25q0 -13 -10 -24t-25 -11q-38 0 -55 15q-25 21 -25 86v802q0 65 25 86q18 15 55 15q13 0 24 -10t11 -25q0 -13 -10.5 -24t-24.5 -11q-58 1 -58 -30v-804z" />
    <glyph glyph-name="logicalnot" unicode="&#xac;" 
d="M-340 -241q48 0 84 19q45 24 45 68t-46 68q-36 18 -85 18q-48 0 -85 -19q-47 -23 -44 -67q-2 -45 45 -68q37 -19 86 -19zM-340 -306q-62 0 -106 44t-44 106t42 104t104 44q48 1 87.5 -25.5t56.5 -71.5q14 45 51.5 70.5t85.5 26.5q62 2 107.5 -42t45.5 -106t-44 -106
t-106 -44q-46 0 -85 27t-55 70q-18 -44 -55.5 -70.5t-84.5 -26.5zM-60 -241q48 0 84 19q45 24 45 68q0 51 -61 74q-31 12 -70 12q-48 0 -85 -19q-47 -23 -44 -67q-2 -44 45 -68q38 -19 86 -19z" />
    <glyph glyph-name="registered" unicode="&#xae;" 
d="M-358 -145q1 100 70 144q5 3 11 3q28 0 28 -29q0 -11 -13 -19q-81 -47 -77 -99q-3 -47 53 -70q0 33 22 53t55 20q34 0 56.5 -19.5t22.5 -53.5q53 21 53 70q0 32 -50 74q-38 32 -38 51q0 22 26 22q6 0 11 -3q69 -45 69 -144q0 -62 -43.5 -106t-105.5 -44t-106.5 44.5
t-43.5 105.5zM-148 -214q0 13 -25 21q-19 6 -36 6t-36 -6q-25 -8 -25 -21q0 -16 61 -16t61 16z" />
    <glyph glyph-name="degree" unicode="&#xb0;" horiz-adv-x="843" 
d="M406 82q55 0 55 64q0 10 -5 30.5t-5 30.5q0 12 5.5 34.5t5.5 34.5q0 50 -54 50q-56 0 -56 -49q0 -12 5.5 -34t5.5 -34q0 -10 -5 -30.5t-5 -30.5q0 -66 53 -66zM627 27q-63 -1 -63 38q0 5 1 11q7 34 46 30l16 -2q61 0 103 24q49 28 49 78q0 52 -54 80q-42 22 -100 22
q-127 0 -151 -104q-2 -7 4 -28q10 -38 10 -58q0 -88 -82 -88q-80 0 -80 90q0 14 3 29q2 10 7.5 30t3.5 27q-24 104 -151 104q-58 0 -100 -22q-54 -28 -54 -80q0 -50 49 -78q42 -24 103 -24q2 0 8 2l8 1q40 5 46 -30q3 -17 -10 -31t-31 -16t-21 -2q-74 0 -125 51t-51 125
t53 124.5t127 49.5q93 -2 145 -83q-2 34 18 57.5t54 23.5q35 0 53.5 -23.5t16.5 -59.5q52 81 145 83q73 1 126.5 -50t53.5 -124q0 -74 -51 -125t-125 -52zM406 -257q47 0 47 55q0 8 -4 26q-5 15 -5 25q0 6 9 46q1 5 1 13q0 43 -46 43q-48 0 -48 -41q0 -10 5 -29t5 -30
q0 -9 -4.5 -26t-4.5 -26q0 -56 45 -56zM594 -304q-11 0 -28 4q-26 7 -26 29q0 37 40 35l14 -2q48 0 84 19q45 24 45 68q0 51 -61 74q-31 12 -70 12q-107 0 -128 -88q-2 -6 3 -24q6 -23 6 -25q3 -11 3 -26q0 -73 -70 -73q-67 0 -67 76q0 17 2 25q0 3 6 25q5 18 3 24
q-21 88 -128 88q-48 0 -85 -19q-46 -24 -46 -68t45 -68q35 -18 84 -18q1 0 14 2q33 4 39 -25q6 -30 -25 -39q-16 -3 -28 -3q-62 0 -106 44t-44 106t45 104.5t108 42.5q78 0 124 -70q-2 29 15.5 49t45.5 20q29 0 45 -20.5t14 -50.5q44 69 124 71q62 1 107.5 -42.5
t45.5 -105.5t-43.5 -106t-106.5 -45z" />
    <glyph glyph-name="plusminus" unicode="&#xb1;" horiz-adv-x="843" 
d="M406 82q55 0 55 64q0 10 -5 30.5t-5 30.5q0 12 5.5 34.5t5.5 34.5q0 50 -54 50q-56 0 -56 -49q0 -12 5.5 -34t5.5 -34q0 -10 -5 -30.5t-5 -30.5q0 -66 53 -66zM627 27q-63 -1 -63 38q0 5 1 11q7 34 46 30l16 -2q61 0 103 24q49 28 49 78q0 52 -54 80q-42 22 -100 22
q-127 0 -151 -104q-2 -7 4 -28q10 -38 10 -58q0 -88 -82 -88q-80 0 -80 90q0 14 3 29q2 10 7.5 30t3.5 27q-24 104 -151 104q-58 0 -100 -22q-54 -28 -54 -80q0 -50 49 -78q42 -24 103 -24q2 0 8 2l8 1q40 5 46 -30q3 -17 -10 -31t-31 -16t-21 -2q-74 0 -125 51t-51 125
q0 73 53 122.5t127 49.5q93 0 145 -81q-2 34 18 57.5t54 23.5q35 0 53.5 -23.5t16.5 -59.5q52 81 145 83q73 1 126.5 -50t53.5 -124q0 -74 -51 -125t-125 -52zM744 -151q0 -64 -44.5 -106t-108.5 -42q-56 0 -101 46.5t-45 102.5q0 39 41.5 63t41.5 35q0 20 -41 20
q-20 0 -25 -5q-9 -7 -17 1q-5 8 2 16q16 19 40 19q58 0 58 -51q0 -40 -50 -58q-31 -11 -32 -40q-2 -44 46 -67q37 -18 85 -18q49 0 86 18q46 23 46 67q0 54 -78 100q-20 12 -9 33q7 15 23 15q4 0 12 -4q33 -22 51.5 -62.5t18.5 -82.5z" />
    <glyph glyph-name="twosuperior" unicode="&#xb2;" horiz-adv-x="843" 
d="M406 82q55 0 55 64q0 10 -5 30.5t-5 30.5q0 12 5.5 34.5t5.5 34.5q0 50 -54 50q-56 0 -56 -49q0 -12 5.5 -34t5.5 -34q0 -10 -5 -30.5t-5 -30.5q0 -66 53 -66zM627 27q-63 -1 -63 38q0 5 1 11q7 34 46 30l16 -2q61 0 103 24q49 28 49 78q0 52 -54 80q-42 22 -100 22
q-127 0 -151 -104q-2 -7 4 -28q10 -38 10 -58q0 -88 -82 -88q-80 0 -80 90q0 14 3 29q2 10 7.5 30t3.5 27q-24 104 -151 104q-58 0 -100 -22q-54 -28 -54 -80q0 -50 49 -78q42 -24 103 -24q2 0 8 2l8 1q40 5 46 -30q3 -17 -10 -31t-31 -16t-21 -2q-74 0 -125 51t-51 125
t53 124.5t127 49.5q93 -2 145 -83q-2 34 18 57.5t54 23.5q35 0 53.5 -23.5t16.5 -59.5q52 81 145 83q73 1 126.5 -50t53.5 -124q0 -74 -51 -125t-125 -52zM657 -262q-19 -12 -31 5t4 30q8 7 42 31q26 24 26 50q0 42 -41 65q-33 18 -79 18q-45 0 -76 -18q-39 -23 -36 -65
q-2 -57 54 -74q20 -6 20 -26q0 -29 -47 -29h-319q-78 0 -78 63v140q0 32 31 55q23 17 39 17q50 0 77 -30t27 -80q0 -32 -15 -44q-11 -9 -25 -6q-12 3 -19.5 13.5t-4.5 22.5q1 5 17 22q13 15 10 29q-8 35 -56 35q-55 0 -55 -55v-119q0 -10 20 -21t32 -11l311 1
q-43 40 -43 105q0 60 37.5 98.5t97.5 38.5q61 0 102.5 -38t42.5 -99q2 -81 -65 -124z" />
    <glyph glyph-name="threesuperior" unicode="&#xb3;" horiz-adv-x="843" 
d="M406 82q55 0 55 64q0 10 -5 30.5t-5 30.5q0 12 5.5 34.5t5.5 34.5q0 50 -54 50q-56 0 -56 -49q0 -12 5.5 -34t5.5 -34q0 -10 -5 -30.5t-5 -30.5q0 -66 53 -66zM627 27q-63 -1 -63 38q0 5 1 11q7 34 46 30l16 -2q61 0 103 24q49 28 49 78q0 52 -54 80q-42 22 -100 22
q-127 0 -151 -104q-2 -7 4 -28q10 -38 10 -58q0 -88 -82 -88q-80 0 -80 90q0 14 3 29q2 10 7.5 30t3.5 27q-24 104 -151 104q-58 0 -100 -22q-54 -28 -54 -80q0 -50 49 -78q42 -24 103 -24q2 0 8 2l8 1q40 5 46 -30q3 -17 -10 -31t-31 -16t-21 -2q-74 0 -125 51t-51 125
q0 73 53 122.5t127 49.5q93 0 145 -81q-2 34 18 57.5t54 23.5q35 0 53.5 -23.5t16.5 -59.5q52 81 145 83q73 1 126.5 -50t53.5 -124q0 -74 -51 -125t-125 -52zM571 -154q-22 0 -22 -9q0 -10 23 -10h48q35 0 35 -27v-61q0 -12 11 -15q10 -3 15 1q2 2 6 2q8 0 11 -8
q5 -14 -9 -15q-17 -2 -31 8t-14 27v55q0 11 -24 11h-48q-14 0 -24.5 9.5t-10.5 23.5q0 24 34 24h81q24 0 24 10t-23 10h-44q-87 0 -87 58q0 54 87 54q49 0 79 -38q5 -6 0 -11q-6 -3 -12 1q-17 16 -67 16h-49q-27 -3 -27 -22q0 -30 76 -30h42q36 0 36 -35q0 -29 -35 -29h-81z
" />
    <glyph glyph-name="acute" unicode="&#xb4;" 
d="M-316 -189q7 -1 7 -13q0 -38 96 -38q30 0 56 7q40 10 40 31q0 19 -40 31q-30 9 -56 9q-18 0 -18 14q0 15 18 15q24 0 56 10q40 13 40 31q0 20 -40 29q-27 7 -56 7q-96 0 -96 -36q0 -2 5.5 -7t7.5 -10q3 -11 0 -14q-2 -3 -6 -3t-8 3q-23 15 -23 42q0 42 41 64q33 18 79 18
q45 0 78 -18q42 -23 42 -64q0 -39 -59 -65q59 -30 59 -67q0 -41 -41 -65q-35 -19 -79 -19q-47 0 -80 18q-40 23 -40 66q0 9 4 18t13 6z" />
    <glyph glyph-name="mu1" unicode="&#xb5;" horiz-adv-x="392" 
d="M53 -300q-28 0 -43 37q-10 27 -10 60v329q0 18 12 27q13 10 24 -2q48 -53 132 -53q60 0 102 23q52 28 52 83q0 53 -53 81q-44 23 -101 23q-86 0 -132 -51q-10 -12 -24 -2q-12 8 -1 26q58 97 159 97q73 0 125.5 -52t52.5 -125t-53 -124.5t-127 -51.5q-86 0 -146 84v-311
q0 -23 38 -36q24 -11 24 -34q0 -12 -9.5 -20t-21.5 -8zM264 -67q-61 3 -61 -19q0 -17 64 -17q47 0 47 19q0 14 -50 17zM286 -133q-22 -2 -23 -2q-25 0 -49 15q-27 17 -27 40q0 11 9 17h-21q-38 -4 -65 -26q-30 -24 -30 -60q0 -43 46 -68q37 -20 84 -20q53 0 81 19
q17 12 29 -1q9 -9 -1 -27q-16 -22 -48.5 -36.5t-60.5 -14.5q-62 0 -105.5 43t-43.5 105q0 63 43 105.5t106 42.5q39 0 84 -24q53 -28 53 -64q0 -23 -33 -36q29 -8 41 -32q4 -9 1 -19q-3 -9 -12 -9t-16 12.5t-14 23t-28 16.5z" />
    <glyph glyph-name="mu1" unicode="&#x3bc;" horiz-adv-x="392" 
d="M53 -300q-28 0 -43 37q-10 27 -10 60v329q0 18 12 27q13 10 24 -2q48 -53 132 -53q60 0 102 23q52 28 52 83q0 53 -53 81q-44 23 -101 23q-86 0 -132 -51q-10 -12 -24 -2q-12 8 -1 26q58 97 159 97q73 0 125.5 -52t52.5 -125t-53 -124.5t-127 -51.5q-86 0 -146 84v-311
q0 -23 38 -36q24 -11 24 -34q0 -12 -9.5 -20t-21.5 -8zM264 -67q-61 3 -61 -19q0 -17 64 -17q47 0 47 19q0 14 -50 17zM286 -133q-22 -2 -23 -2q-25 0 -49 15q-27 17 -27 40q0 11 9 17h-21q-38 -4 -65 -26q-30 -24 -30 -60q0 -43 46 -68q37 -20 84 -20q53 0 81 19
q17 12 29 -1q9 -9 -1 -27q-16 -22 -48.5 -36.5t-60.5 -14.5q-62 0 -105.5 43t-43.5 105q0 63 43 105.5t106 42.5q39 0 84 -24q53 -28 53 -64q0 -23 -33 -36q29 -8 41 -32q4 -9 1 -19q-3 -9 -12 -9t-16 12.5t-14 23t-28 16.5z" />
    <glyph glyph-name="paragraph" unicode="&#xb6;" horiz-adv-x="800" 
d="M706 -170l-3 -3l-623 361l623 362l3 -3l-206 -359zM633 476l-494 -286h329z" />
    <glyph glyph-name="cedilla" unicode="&#xb8;" horiz-adv-x="843" 
d="M406 30q-80 0 -80 90q0 14 3 29q17 51 16 57q-12 52 -58 79q-42 25 -98 25q-58 0 -100 -22q-54 -28 -54 -80q0 -50 49 -78q42 -24 103 -24q5 0 21 2q12 2 20 1q39 -6 43 -58q-40 -21 -84 -21q-74 0 -125 51t-51 125t53 124.5t127 49.5q93 -2 145 -83q-2 34 18.5 58
t53.5 23t52.5 -25t17.5 -58q52 81 145 83q73 1 126.5 -50t53.5 -124q0 -74 -51 -125t-125 -51q-43 0 -84 21q5 51 43 58q7 1 21.5 -1t19.5 -2q61 0 103 24q49 28 49 78q0 52 -54 80q-42 22 -100 22q-56 0 -98 -25q-46 -27 -58 -79q-1 -5 5.5 -27.5t10.5 -29.5q3 -13 3 -29
q0 -88 -82 -88zM406 82q55 1 55 64q0 12 -7 31q-8 15 -8 30t6 28q8 18 9 24q0 3 1 7v7q0 46 -54 53q-56 -2 -56 -51q0 -4 1 -12.5t8 -25.5t7 -28t-7 -30q-8 -15 -8 -31q0 -58 53 -66zM406 -280q-63 0 -63 71q0 8 2 24q0 3 8 24q6 16 4 22q-9 41 -46 63q-33 20 -78 20
q-46 0 -80 -17q-44 -22 -44 -64q0 -41 43 -64q34 -18 79 -18l16 2q11 1 17 0q31 -4 34 -46q-36 -17 -67 -17q-58 0 -99.5 41.5t-41.5 99.5t43 99t101 40q74 -2 116 -66q-2 27 14.5 47t43.5 18q25 -1 41.5 -21t14.5 -46q43 67 116 67q60 0 102 -40.5t42 -99.5t-41 -99.5
t-100 -40.5q-36 0 -67 16q5 43 34 47q4 1 17 -1t16 -2q45 0 79 18q43 23 43 64q0 42 -43 64q-35 18 -81 18q-44 0 -78 -21q-37 -23 -46 -63q-2 -5 5 -23t7 -22q3 -11 3 -24q0 -70 -66 -70zM406 -238q44 2 44 51q0 9 -6 24.5t-6 24.5q0 11 5.5 23.5t6.5 18.5t1 12
q0 36 -43 41q-45 -3 -45 -39q0 -12 6.5 -29t6.5 -26q0 -8 -6 -23t-6 -25q0 -49 42 -53z" />
    <glyph glyph-name="onesuperior" unicode="&#xb9;" horiz-adv-x="392" 
d="M214 -261q0 -12 11 -14q10 -2 15 2t10.5 -1t6.5 -11q2 -14 -9 -15q-18 -2 -36 8t-18 27v295q-15 -3 -22 -3q-66 0 -119 55t-53 121q0 35 22 56l57 36q19 12 19 23q0 24 -48 24q-23 0 -30 -6q-11 -9 -19 1q-7 9 2 19q19 22 47 22q68 0 68 -60q0 -47 -59 -68
q-35 -12 -37 -47q-3 -61 75 -88q0 35 37 35h42q26 0 48 9q29 11 29 34q0 33 -77 33q-53 0 -66 -13q-8 -3 -12 -1q-4 4 -1 12q30 37 79 37q35 0 60 -16q28 -19 28 -52q0 -71 -88 -71h-44q-20 0 -20 -11q29 -8 64 -8q58 0 100 21q55 27 55 79q0 63 -92 117q-14 8 -14 23
q0 12 9.5 22.5t21.5 10.5q8 0 14 -4q39 -26 60.5 -73.5t21.5 -97.5q0 -63 -38 -109.5t-100 -58.5v-294z" />
    <glyph glyph-name="ordmasculine" unicode="&#xba;" horiz-adv-x="726" 
d="M496 -232q48 0 84 19q44 23 44 67t-46 67q-36 19 -84 19q-47 0 -83 -19q-45 -24 -45 -67q0 -45 45 -68q36 -18 85 -18zM314 -300q-235 -1 -236 0q-78 0 -78 99v327q0 18 12 27q13 10 24 -2q48 -53 132 -53q62 0 105 25q50 29 47 83q3 50 -47 78q-43 24 -105 24
q-86 0 -132 -51q-10 -12 -24 -2q-12 8 -1 26q58 97 159 97q74 0 124 -51t48 -125q-1 -52 52 -81q44 -24 100 -24q58 0 100 22q54 28 54 80q0 50 -49 78q-42 24 -103 24q-7 0 -19.5 -2t-18.5 -2q-15 0 -27 11t-12 26q0 23 25 37q11 6 52 6q74 0 125 -51t51 -125t-53 -125
t-127 -49q-114 3 -161 113q-18 -51 -63 -82t-99 -31q-90 0 -147 82v-311q0 -28 56 -28h240q15 0 26 -10t11 -25q0 -35 -41 -35zM118 -124q0 11 9.5 20.5t20.5 9.5q13 0 22 -10q53 -15 100 -15q71 0 96 37q40 81 126 81q62 0 107 -42.5t45 -104.5q0 -60 -43 -104t-105 -44
q-61 0 -104.5 43.5t-43.5 104.5q0 2 2 24q-38 -56 -117 -56q-35 0 -69 12q-46 15 -46 44z" />
    <glyph glyph-name="guillemotright" unicode="&#xbb;" horiz-adv-x="150" 
d="M88 -202v804q0 31 -58 30q-14 0 -24.5 10.5t-10.5 24.5t10.5 24.5t24.5 10.5q37 0 55 -15q25 -21 25 -86v-802q0 -65 -25 -86q-17 -15 -55 -15q-14 0 -24.5 10.5t-10.5 24.5t10.5 24.5t24.5 10.5q58 -1 58 30z" />
    <glyph glyph-name="onequarter" unicode="&#xbc;" horiz-adv-x="392" 
d="M175 28q-56 0 -114 42q-62 45 -62 99q0 67 91 67q32 0 56 -12q45 -23 39 -122q57 3 95 25q46 27 46 71q0 8 -136 56t-136 55q-2 33 39 53q32 15 69 16q64 2 114 -39l-16 -20q-43 21 -98 21q-34 0 -56 -8q17 -15 121 -50t116 -47q9 -19 9 -31q0 -82 -47.5 -129t-129.5 -47
zM306 -299q-47 1 -84 28t-53 72q-16 -46 -57.5 -73.5t-89.5 -26.5q-62 2 -104 42t-42 102t42 104t104 44q50 1 90 -26t57 -74q16 43 53.5 71t83.5 29q63 2 107 -41.5t46 -106.5q1 -61 -45 -103.5t-108 -40.5zM100 173q-5 0 -33.5 -8.5t-26.5 -10.5q35 -42 118 -50
q3 21 -8 40q-17 29 -50 29zM24 -66q-49 0 -85 -19q-47 -24 -44 -68q-2 -44 44 -68q37 -19 85 -19t85 19q46 24 46 68t-46 68q-37 19 -85 19zM309 -66q-48 0 -85 -19q-47 -24 -44 -68q-2 -44 44 -68q37 -19 85 -19t85 19q46 24 46 68t-46 68q-37 19 -85 19z" />
    <glyph glyph-name="onehalf" unicode="&#xbd;" horiz-adv-x="392" 
d="M96 116q0 -11 82 -11q83 0 83 9q0 16 -35 24q-25 6 -48 6q-82 0 -82 -28zM328 -162v368q0 52 -54 80q-42 22 -100 22q-60 0 -103 -25q-49 -28 -49 -79q0 -46 53 -78q6 30 38 50q29 18 62 18q38 0 69 -22q35 -24 35 -61q0 -36 -33.5 -59.5t-70.5 -23.5q-74 0 -124.5 51
t-50.5 125q0 73 49.5 123t122.5 51t126.5 -50t53.5 -124v-366h-24z" />
    <glyph glyph-name="threequarters" unicode="&#xbe;" 
d="M-366 -150q0 62 44 106t106 44t106 -44t44 -106q0 -42 -18 -80q-19 -42 -52 -63q-6 -4 -12 -4q-16 0 -23 15q-11 21 9 33q81 49 77 99q2 44 -46 67q-36 18 -85 18t-85 -18q-48 -23 -46 -67q-4 -50 77 -99q20 -12 9 -33q-8 -15 -23 -15q-6 0 -12 4q-33 21 -52 63
q-18 38 -18 80z" />
    <glyph glyph-name="questiondown" unicode="&#xbf;" horiz-adv-x="444" 
d="M236 98q23 0 39 -16t16 -39q0 -22 -16.5 -38.5t-38.5 -16.5t-38.5 16.5t-16.5 38.5q0 23 16 39t39 16zM348 370q-26 -26 -55 -73q-43 -71 -43 -135h-24q14 115 46 174q9 17 75 101q43 55 43 95q0 44 -62 65q-43 14 -98 14q-58 0 -101 -17q-46 -18 -46 -49
q0 -15 36.5 -34.5t40.5 -30.5q6 -17 6 -27q0 -14 -13.5 -25t-27.5 -11q-32 0 -48 41q-13 30 -13 67q0 77 45 125.5t122 48.5q85 0 133 -42q52 -44 52 -127q0 -94 -68 -160z" />
    <glyph glyph-name="Agrave" unicode="&#xc0;" horiz-adv-x="650" 
d="M594 228v-8q-1 -6 -1 -9q-5 -48 -38 -78.5t-78 -30.5q-72 0 -125 79q3 -61 44 -107q44 -52 113 -56l10 -18h-345l8 18q59 6 100 43q49 45 52 121q-52 -78 -123 -78q-43 0 -74.5 29t-36.5 74q-1 10 -1 24q0 47 29 75q26 25 67 25q28 0 53 -12q-18 39 -18 70q0 45 36 72
q32 24 78 24q45 0 78 -24q35 -27 35 -71q0 -32 -19 -70q28 14 56 14q42 0 70 -26q30 -29 30 -80z" />
    <glyph glyph-name="Aacute" unicode="&#xc1;" 
d="M-355 -150q2 89 61 134q11 8 20 -1q3 -3 3 -16q0 -22 23 -35q19 -11 42 -11q25 0 44.5 11.5t19.5 34.5q0 7 4 16q9 9 19 1q62 -48 62 -134q0 -62 -44 -106.5t-106 -43.5q-63 2 -106 45t-42 105zM-76 -150q0 26 -15 51t-38 36q-5 -26 -28 -41.5t-51 -15.5
q-27 0 -48.5 15.5t-26.5 41.5q-23 -11 -38.5 -36.5t-14.5 -50.5q-2 -45 45 -67q36 -18 86 -18q49 0 84 18q45 23 45 67z" />
    <glyph glyph-name="Acircumflex" unicode="&#xc2;" horiz-adv-x="700" 
d="M641 423q0 -30 -25 -46l-339 -345q-33 -34 -69 -34q-35 0 -64 28.5t-31 57.5l-11 156q-2 31 16 55q17 18 35 37q17 14 39 14q18 0 32 -10.5t14 -26.5q0 -33 5 -65q8 -52 25 -52q4 0 5 2l309 295q8 8 30 8q29 0 29 -21v-53z" />
    <glyph glyph-name="Atilde" unicode="&#xc3;" horiz-adv-x="650" 
d="M532 222q0 -42 -32.5 -71t-74.5 -29q-66 0 -100 67q2 -69 31 -107q39 -49 132 -56l6 -22h-370l10 22q73 7 111 35q55 40 57 133q-50 -72 -113 -72q-41 0 -69.5 30t-28.5 77q0 11 5 33q7 32 60 87q48 49 95 98q51 60 56 106h4q10 -53 58 -108q44 -45 89 -90q51 -52 65 -93
q9 -26 9 -40z" />
    <glyph glyph-name="Adieresis" unicode="&#xc4;" horiz-adv-x="400" 
d="M386 161h-132l104 -103l-34 -25l-100 99v-132l-43 2l-1 131l-100 -100l-34 25l104 103l-131 2v42l134 1l-102 100l28 31l101 -102l1 131h40l3 -130l100 100l34 -25l-105 -105l131 -1z" />
    <glyph glyph-name="Aring" unicode="&#xc5;" 
d="M-514 -235q48 0 84 19q45 24 45 68t-46 68q-37 19 -85 19q-49 0 -85 -19q-47 -24 -44 -68q-2 -45 45 -68q37 -19 86 -19zM-275 -294q-20 11 -20 31q0 13 10 22.5t23 9.5q5 0 15.5 -2t16.5 -2q48 0 84 19q45 24 45 68t-46 68q-37 19 -85 19q-34 0 -81 -27q-52 -31 -52 -62
q0 -62 -44 -105.5t-105 -43.5q-63 0 -106.5 43t-43.5 106q0 62 42 104t104 44q50 1 90 -26t57 -74q16 43 53.5 71t83.5 29q63 2 108 -41.5t45 -106.5q0 -62 -44 -105.5t-105 -43.5q-36 0 -45 5z" />
    <glyph glyph-name="AE" unicode="&#xc6;" 
d="M-144 -67q-61 3 -61 -19q0 -17 64 -17q47 0 47 19q0 14 -50 17zM-122 -133q-22 -2 -23 -2q-25 0 -49 15q-27 17 -27 40q0 11 9 17h-21q-38 -4 -65 -26q-30 -24 -30 -60q0 -44 45 -68q37 -20 85 -20q53 0 81 19q17 12 29 -1q9 -9 -1 -27q-16 -22 -48.5 -36.5t-60.5 -14.5
q-62 0 -105.5 43t-43.5 105q0 63 43 105.5t106 42.5q39 0 84 -24q53 -28 53 -64q0 -23 -33 -36q29 -8 41 -32q4 -9 1 -19q-3 -9 -12 -9t-16 12.5t-14 23t-28 16.5z" />
    <glyph glyph-name="Ccedilla" unicode="&#xc7;" 
d="M51 -148q0 44 -46 68q-37 19 -85 19t-85 -20q-45 -25 -45 -69q0 -65 -40.5 -107.5t-105.5 -42.5q-85 0 -135 83q-9 15 1 22q11 8 20 -2q38 -43 113 -43q48 0 85 20q44 25 44 70q0 46 -44 68q-35 18 -85 18q-75 0 -113 -43q-9 -10 -20 -2q-10 7 -1 22q51 85 134 85
q47 0 85 -26t53 -70q40 96 137 96q63 0 108 -42.5t45 -104.5t-44 -106t-106 -44q-35 0 -44 5q-21 12 -21 33q0 15 15 23.5t30 4.5q3 -1 20 -1q49 0 85 18q45 23 45 68z" />
    <glyph glyph-name="Egrave" unicode="&#xc8;" 
d="M-515 -300q-62 0 -106 44t-44 106t42.5 105t104.5 43q64 0 106 -44t42 -108q0 -44 46 -68q36 -18 85 -18t85 18q47 23 44 68q2 44 -45 68q-36 19 -85 19q-34 0 -58 -9q-12 -5 -26 2t-14 20q0 14 15 27q28 25 83 25q62 0 105.5 -44t43.5 -106t-42.5 -105t-103.5 -43
q-65 0 -110.5 42t-45.5 106q0 33 -47 63q-42 27 -77 27q-49 0 -85 -19q-47 -24 -44 -68q-2 -45 45 -68q37 -18 86 -18q31 0 55 8q13 4 26.5 -2t13.5 -20q0 -20 -30 -37q-25 -14 -65 -14z" />
    <glyph glyph-name="Eacute" unicode="&#xc9;" horiz-adv-x="444" 
d="M114 540q55 -4 55 -50q0 -28 -22.5 -45.5t-49.5 -11.5q-70 15 -70 101q0 38 37.5 83t74.5 59l8 -19q-30 -18 -42.5 -30.5t-25.5 -36.5t-13 -40q0 -13 15 -13l16 2q4 0 10 1h7zM342 540q55 -4 55 -50q0 -28 -22.5 -45.5t-49.5 -11.5q-70 15 -70 101q0 38 37.5 83t74.5 59
l8 -19q-30 -18 -42.5 -30.5t-25.5 -36.5t-13 -40q0 -13 15 -13l16 2q4 0 10 1h7z" />
    <glyph glyph-name="Ecircumflex" unicode="&#xca;" horiz-adv-x="444" 
d="M88 568q-55 4 -55 50q0 27 22.5 45t49.5 12q70 -15 70 -101q0 -38 -37 -83t-75 -59l-8 19q30 18 42.5 30.5t25.5 36.5t13 40v0q0 14 -18 13q-36 -2 -30 -3zM316 568q-55 4 -55 50q0 27 22.5 45t49.5 12q70 -15 70 -101q0 -38 -37 -83t-75 -59l-8 19q30 18 42.5 30.5
t25.5 36.5t13 40v0q0 14 -18 13q-36 -2 -30 -3z" />
    <glyph glyph-name="Edieresis" unicode="&#xcb;" horiz-adv-x="563" 
d="M-682 242q48 0 82.5 -36t34.5 -83q0 -31 21 -52t52 -21q32 0 53 20.5t21 52.5t-21 53t-53 21h-18q-21 0 -21 19q0 24 39 24q49 0 83 -34t34 -83q0 -48 -34.5 -82.5t-82.5 -34.5q-60 0 -96 50q-35 -48 -94 -48q-63 0 -98 52q-4 6 -4 12v0q0 15 15 21q16 5 25 -9
q23 -33 62 -33q32 0 52.5 21t20.5 53q0 31 -21 52t-52 21q-39 0 -62 -33q-7 -10 -18 -10q-22 0 -22 22q0 6 4 12q35 53 98 53zM-418 -27v-120q20 0 20 -19t-20 -19q-17 0 -30 10.5t-13 27.5v121q0 24 21 24q22 0 22 -25zM-523 -27v-138q0 -21 22 -21t22 21v139q0 24 -22 24
t-22 -25zM-232 60q-7 46 -53 46h-6q-3 -1 -6 -1q19 -43 65 -45zM-111 -166q-17 0 -30.5 11t-13.5 27v262q0 30 -22 52t-52 22q-28 0 -50 -20.5t-24 -49.5q6 1 18 1q37 0 62 -25t25 -62q0 -23 -6 -29t-25 -6q-49 0 -83 34t-34 83t34 83t83 34t83 -34t34 -83v-262q19 0 19 -20
q0 -18 -18 -18zM-229 446q38 0 64.5 -26t26.5 -64q0 -39 -26 -65.5t-65 -26.5q-38 0 -64.5 27t-26.5 65t26 64t65 26zM-229 403q-20 0 -34 -13.5t-14 -33.5t14 -34t34 -14t34 14t14 34q0 21 -13.5 34t-34.5 13zM758 69v18q0 11 -7 18q-10 8 -19 8q-26 0 -26 -18
q0 -11 7.5 -18.5t18.5 -7.5h26zM857 153q40 -18 40 -58q0 -29 -20 -49t-49 -20h-27v-159q0 -26 -21 -26q-22 0 -22 26v159h-26q-29 0 -49 20t-20 49q0 23 19 38t50 15q25 0 46 -13q23 -16 23 -40v-26h27q27 0 27 26q0 16 -13 23l-94 49q-25 13 -25 42q0 23 17 37t40 14
q31 0 46 -27q3 -5 3 -9v0q0 -13 -13 -17t-21 8q-4 9 -15 9q-18 0 -18 -18q0 -10 7 -13zM773 270q-31 7 -51.5 32.5t-20.5 57.5q0 38 27 64t65 26q48 0 75 -39q6 -9 6 -17v0q0 -14 -16 -19q-15 -3 -25 11q-15 21 -40 21q-20 0 -34 -13.5t-14 -33.5q0 -21 29 -43t29 -29v0
q0 -10 -7.5 -15t-22.5 -3zM311 213q-30 0 -52 -22t-22 -52t22 -52t52 -22t52 22t22 52t-22 52t-52 22zM502 256q49 0 83 -34t34 -83t-34 -83t-83 -34q-61 0 -95 49q-36 -49 -96 -49q-49 0 -83 34t-34 83t34 83t83 34q60 0 96 -49q34 49 95 49zM502 213q-30 0 -52 -22
t-22 -52t22 -52t52 -22t52 22t22 52t-22 52t-52 22zM23 60v18q0 25 -25 25q-27 0 -27 -17q0 -9 7.5 -17.5t19.5 -8.5h25zM122 144q40 -18 40 -58q0 -28 -20 -49t-48 -21h-27v-158q0 -26 -22 -26t-22 26v158h-25q-29 0 -49.5 20.5t-20.5 49.5q0 25 23 40q20 13 47 13
q24 0 46.5 -15t22.5 -38v-26h27q26 0 26 26q0 16 -13 23l-94 48q-24 12 -24 42q0 51 56 51q32 0 47 -26q2 -3 2 -10v0q0 -12 -12 -16q-15 -4 -21 8q-6 9 -16 9q-18 0 -18 -18q0 -10 8 -14zM38 261q-31 6 -51 31.5t-20 57.5q0 39 26 65t65 26q49 0 75 -39q6 -9 6 -17v0
q0 -16 -16 -19t-25 11q-14 21 -40 21q-20 0 -34 -14t-14 -34q0 -19 29 -42t29 -30v0q0 -9 -8.5 -14.5t-21.5 -2.5zM513 11q38 0 64.5 -27t26.5 -65t-26.5 -64.5t-64.5 -26.5t-64.5 26.5t-26.5 64.5q0 39 26 65.5t65 26.5zM513 -33q-20 0 -34 -14t-14 -34q0 -21 13.5 -34
t34.5 -13q20 0 34 13.5t14 33.5t-14 34t-34 14zM929 181q0 17 12.5 29.5t30.5 12.5t30.5 -12.5t12.5 -29.5t-13 -30t-30 -13t-30 13t-13 30zM959 181q0 -13 13 -13t13 13q0 12 -13 12t-13 -12zM929 66q0 17 13 30t30 13t30 -13t13 -30q0 -18 -12.5 -30t-30.5 -12t-30.5 12
t-12.5 30zM959 66q0 -13 13 -13t13 13t-13 13t-13 -13z" />
    <glyph glyph-name="Iacute" unicode="&#xcd;" horiz-adv-x="392" 
d="M78 -300q-78 0 -78 97v329q0 18 12 27q13 10 24 -2q48 -53 132 -53q60 0 102 23q52 28 52 83q0 53 -53 81q-44 23 -101 23q-86 0 -132 -51q-10 -12 -24 -2q-12 8 -1 26q58 97 159 97q73 0 125.5 -52t52.5 -125t-53 -124.5t-127 -51.5q-86 0 -146 84v-311q0 -28 54 -28
h100q36 0 36 -34q0 -15 -10.5 -25.5t-25.5 -10.5h-98z" />
    <glyph glyph-name="Eth" unicode="&#xd0;" 
d="M-52 551q0 -62 -45.5 -106t-108.5 -44t-107.5 43.5t-44.5 106.5q0 64 43.5 106t108.5 42q66 0 110 -43t44 -105zM-205 639q-46 0 -87 -20q-50 -26 -47 -67q-2 -37 29 -57q1 3 8 14q30 50 94 50q52 7 91 -44q9 -12 14 -20q32 23 29 57q2 44 -45 68q-38 19 -86 19z
M-285 479q49 -16 77 -15q35 2 52 7q12 4 28 8q-21 39 -77 36q-59 3 -80 -36zM-551 615q0 -26 19 -33q11 -4 40 -4q26 0 52 -15.5t36 -38.5q9 -20 -12 -20q-5 0 -9 5q-11 23 -62 21q-34 -1 -42 -4q-21 -8 -21 -36t21 -36q10 -4 42 -5q51 -2 62 21q6 8 16 3q12 -6 5 -17
q-26 -54 -81 -54q-37 0 -62.5 26t-23.5 63q1 35 27 65q-24 22 -26 58q-1 34 21.5 57.5t56.5 23.5q50 0 74 -49q1 -2 1 -5q0 -12 -10 -12q-7 0 -10 4q-10 21 -56 19q-28 -1 -39 -5q-19 -7 -19 -32z" />
    <glyph glyph-name="Ntilde" unicode="&#xd1;" horiz-adv-x="100" 
d="M-272 -121q-51 5 -53 -20q-1 -17 19 -22q15 -4 34 -2q37 5 38 24q-1 16 -38 20zM-334 -161q-2 2 -6 -2t-4 -9q0 -3 2 -8q19 -46 113 -46q46 0 80 17q43 22 43 64t-42 66q-35 19 -81 19q-94 0 -113 -46q-2 -5 -2 -8q0 -5 4 -9t6 -2q12 33 56 33q26 0 44.5 -14t18.5 -39
q0 -24 -18.5 -36.5t-43.5 -12.5q-45 0 -57 33zM-118 -230q-46 -54 -113 -52q-47 1 -84 29t-49 73q-1 5 -1 10q0 21 27 27q-27 6 -27 27q0 20 16 46q15 23 33 37q37 29 85 29q59 0 101.5 -40.5t42.5 -98.5q0 -20 -4 -33l91 -46v382q0 35 -11 97.5t-11 84.5q0 15 10.5 25.5
t25.5 10.5q14 0 25 -11t11 -25q0 -23 -11 -85t-11 -97v-460h-28z" />
    <glyph glyph-name="Oacute" unicode="&#xd3;" horiz-adv-x="392" 
d="M168 25q74 0 127 51.5t53 124.5q0 74 -52 125.5t-126 51.5q-101 0 -159 -97q-11 -18 1 -26q14 -10 24 2q46 51 132 51q57 0 101 -23q53 -28 53 -81q0 -55 -52 -83q-42 -23 -102 -23q-84 0 -132 53q-11 12 -24 2q-12 -9 -12 -27v-329q0 -97 78 -97h516q46 0 66 45
q12 27 12 54q0 31 -23 63q-32 44 -90 44q-25 0 -37 -7q-18 -11 -18 -30q0 -14 10.5 -23.5t24.5 -9.5q10 0 18 5q24 15 45 15q19 0 35.5 -16t12.5 -32q-5 -18 -33 -29q-22 -9 -45 -9h-496q-54 0 -54 28v311q60 -84 146 -84zM638 205q0 51 -50 79q-41 23 -96 23q-58 0 -99 -22
q-53 -27 -53 -80q-14 -7 -17 -7q-5 0 -5 5q0 73 49.5 122.5t122.5 49.5q27 0 76 -24q41 -20 45 -26q49 -49 51 -122t-50.5 -125.5t-125.5 -52.5q-42 0 -52 6q-25 15 -25 37q0 15 12 26t27 11q9 0 15.5 -2t22.5 -2q57 0 100 23q52 28 52 81z" />
    <glyph glyph-name="Odieresis" unicode="&#xd6;" horiz-adv-x="2" 
d="M-444 -280q-63 0 -63 71q0 8 2 24q0 3 8 24q6 16 4 22q-9 41 -46 63q-33 20 -78 20q-46 0 -80 -17q-44 -22 -44 -64q0 -41 43 -64q34 -18 79 -18l16 2q11 1 17 0q31 -4 34 -46q-36 -17 -67 -17q-58 0 -99.5 41.5t-41.5 99.5t43 99t101 40q74 -2 116 -66q-2 27 14.5 47
t43.5 18q25 -1 41.5 -21t14.5 -46q43 67 116 67q60 0 102 -40.5t42 -99.5t-41 -99.5t-100 -40.5q-36 0 -67 16q5 43 34 47q4 1 17 -1t16 -2q45 0 79 18q43 23 43 64q0 42 -43 64q-35 18 -81 18q-44 0 -78 -21q-37 -23 -46 -63q-2 -5 5 -23t7 -22q3 -11 3 -24q0 -70 -66 -70z
M-444 -238q44 2 44 51q0 9 -6 24.5t-6 24.5q0 11 5.5 23.5t6.5 18.5t1 12q0 36 -43 41q-45 -3 -45 -39q0 -12 6.5 -29t6.5 -26q0 -8 -6 -23t-6 -25q0 -49 42 -53z" />
    <glyph glyph-name="multiply" unicode="&#xd7;" horiz-adv-x="392" 
d="M240 7v-236q0 -31 34 -31q7 0 17 3.5t13 3.5q9 0 16.5 -7.5t7.5 -16.5q0 -18 -19 -21q-33 -5 -62 15.5t-29 53.5v239q0 18 -45 18h-94q-28 0 -49 17t-21 44q0 67 72 67h84q51 0 95 17q58 23 58 66q0 69 -153 69q-53 0 -72 -2q-39 -4 -61 -24q-11 -10 -24 -2q-12 7 -1 21
q59 77 158 77q71 0 120 -33q55 -38 55 -106q0 -71 -54 -107q-46 -32 -121 -32h-88q-45 0 -45 -20q0 -10 20 -16q14 -4 27 -4h94q67 0 67 -53zM142 -194v-67q0 -12 11 -15q10 -3 15 1q2 2 6 2q8 0 11 -8q5 -14 -9 -15q-17 -2 -31 8t-14 27v68q0 9 -23 9h-47q-35 0 -35 32
t36 32h42q26 0 48 9q29 11 29 34q0 33 -77 33q-53 0 -66 -13q-8 -3 -12 -1q-4 4 -1 12q30 37 79 37q35 0 60 -16q28 -19 28 -52q0 -71 -88 -71h-44q-22 0 -22 -10t23 -10h47q34 0 34 -26z" />
    <glyph glyph-name="Oslash" unicode="&#xd8;" 
d="M-551 615q0 -26 19 -33q11 -4 40 -4q26 0 52 -15.5t36 -38.5q9 -20 -12 -20q-5 0 -9 5q-11 23 -62 21q-34 -1 -42 -4q-21 -8 -21 -36t21 -36q10 -4 42 -5q51 -2 62 21q6 8 16 3q12 -6 5 -17q-26 -54 -81 -54q-37 0 -62.5 26t-23.5 63q1 35 27 65q-24 22 -26 58
q-1 34 21.5 57.5t56.5 23.5q50 0 74 -49q1 -2 1 -5q0 -12 -10 -12q-7 0 -10 4q-10 21 -56 19q-28 -1 -39 -5q-19 -7 -19 -32zM-204 700q62 2 106 -41.5t44 -106.5q0 -62 -43.5 -106t-105.5 -44t-106 44t-44 106t43 104t106 44zM-203 467q48 0 84 18q45 23 45 67t-45 68
q-37 20 -85 20q-49 0 -86 -19q-47 -25 -44 -69q-2 -45 45 -67q36 -18 86 -18z" />
    <glyph glyph-name="Uacute" unicode="&#xda;" horiz-adv-x="392" 
d="M168 25q74 0 127 51.5t53 124.5q0 74 -52 125.5t-126 51.5q-101 0 -159 -97q-11 -18 1 -26q14 -10 24 2q46 51 132 51q57 0 101 -23q53 -28 53 -81q0 -55 -52 -83q-42 -23 -102 -23q-84 0 -132 53q-11 12 -24 2q-12 -9 -12 -27v-329q0 -97 78 -97h516q46 0 66 45
q12 27 12 54q0 31 -23 63q-32 44 -90 44q-25 0 -37 -7q-18 -11 -18 -30q0 -14 10.5 -23.5t24.5 -9.5q10 0 18 5q24 15 45 15q19 0 35.5 -16t12.5 -32q-5 -18 -33 -29q-22 -9 -45 -9h-496q-54 0 -54 28v311q60 -84 146 -84z" />
    <glyph glyph-name="Udieresis" unicode="&#xdc;" 
d="M-354 -148q0 42 21 82q25 49 63 49v0q19 0 26 -22q2 -5 2 -9q0 -15 -20 -18q-74 -13 -74 -80q0 -45 45 -68q35 -18 85 -18q52 0 87 20q41 24 41 66q0 68 -74 80q-20 3 -20 19v0q0 13 11.5 23.5t22.5 5.5q35 -16 56.5 -53t21.5 -77q0 -60 -43 -104t-105 -44
q-61 0 -103.5 43t-42.5 105z" />
    <glyph glyph-name="Thorn" unicode="&#xde;" horiz-adv-x="690" 
d="M692 -303l-690 3v40h687z" />
    <glyph glyph-name="germandbls" unicode="&#xdf;" horiz-adv-x="100" 
d="M50 342q0 13 -10 25q-13 11 -26 11q-16 0 -26 -10.5t-10 -25.5q0 -22 11 -84.5t11 -97.5v-382l-91 45l-36 -48l127 -75h28v460q0 34 11 96t11 86z" />
    <glyph glyph-name="agrave" unicode="&#xe0;" horiz-adv-x="650" 
d="M505 257q-44 -53 -99 -129l-90 -124q-25 40 -179 253q65 92 179 247q65 -96 189 -247z" />
    <glyph glyph-name="aacute" unicode="&#xe1;" horiz-adv-x="800" 
d="M709 183l-623 -361l-3 3l206 358l-206 359l3 3zM649 185l-493 286l164 -286h329z" />
    <glyph glyph-name="acircumflex" unicode="&#xe2;" horiz-adv-x="700" 
d="M583 431l-162 -194l101 -119q4 -6 4 -12q0 -14 -13.5 -32t-21.5 -18q-3 1 -3 11h5q0 -14 -11 -28t-20 -14q-7 0 -9 6l-7 10q-5 -4 -16 -18q-8 -9 -14 -9q-13 0 -29 21l-62 83l-106 -134q-8 -10 -13 -10q-10 0 -18 26l-22 1q-10 15 -23 44q-1 0 11 15l-20 23l129 151
q-49 94 -52 101q-28 55 -34 83q0 23 17 29q8 5 13 5q3 0 8 -4t9 -4q2 0 7 14.5t29 14.5l90 -135l152 155q4 7 17 7q10 0 20.5 -7.5t10.5 -10.5v-15l21 -10q12 -6 12 -26z" />
    <glyph glyph-name="atilde" unicode="&#xe3;" horiz-adv-x="650" 
d="M558 411q0 -15 -6 -37q-16 -60 -103 -170q-91 -114 -120 -201q-35 93 -130 222q-84 114 -88 149q-3 24 -3 28q0 52 34 83q31 29 76 29q85 0 115 -86q9 43 42 67q29 22 68 22q46 0 79 -27q36 -30 36 -79z" />
    <glyph glyph-name="adieresis" unicode="&#xe4;" 
d="M-224 -98q37 91 137 94q63 2 108 -41.5t45 -106.5q0 -62 -44 -105.5t-106 -43.5q-45 0 -84.5 27t-55.5 70q-42 -97 -131 -97q-41 0 -88 24q-55 29 -55 66q0 72 105 72q106 0 106 -71q0 -7 -3 -16q64 19 64 73q0 43 -43 68q-38 22 -87 22q-86 0 -122 -52q-5 -11 -16 -5
q-8 5 -3 17q43 99 141 99q94 0 132 -94zM-393 -181q-84 0 -84 -29q0 -15 36 -23q25 -5 48 -5q45 0 57 2q27 4 27 26q0 29 -84 29zM-84 -237q48 0 85 19q45 24 45 68t-46 68q-37 19 -85 19q-49 0 -87 -22q-42 -24 -42 -67q0 -44 45 -67q36 -18 85 -18z" />
    <glyph glyph-name="aring" unicode="&#xe5;" 
d="M-334 -235q48 0 84 19q45 24 45 68t-46 68q-37 19 -85 19q-49 0 -85 -19q-47 -24 -44 -68q-2 -45 45 -68q37 -19 86 -19zM-95 -294q-20 11 -20 31q0 13 10 22.5t23 9.5q5 0 15.5 -2t16.5 -2q48 0 84 19q45 24 45 68t-46 68q-37 19 -85 19q-34 0 -81 -27q-52 -31 -52 -62
q0 -62 -44 -105.5t-105 -43.5q-63 0 -106.5 43t-43.5 106q0 62 42 104t104 44q50 1 90 -26t57 -74q16 43 53.5 71t83.5 29q63 2 108 -41.5t45 -106.5q0 -62 -44 -105.5t-105 -43.5q-36 0 -45 5z" />
    <glyph glyph-name="ae" unicode="&#xe6;" 
d="M-207 -75q-2 -17 44 -17q35 0 35 17t-35 17q-44 0 -44 -17zM-163 -118q-26 0 -44 17t-18 43q0 56 62 56q23 0 43 -18q51 -46 53 -130q1 -63 -43 -106.5t-107 -43.5q-62 0 -105.5 44t-43.5 106q0 98 69 143q6 4 12 4q16 0 23 -15q11 -22 -8 -33q-83 -47 -78 -99
q-2 -44 46 -67q36 -18 85 -18t85 18q48 23 46 67q3 30 -24 57q-16 -25 -53 -25z" />
    <glyph glyph-name="ccedilla" unicode="&#xe7;" horiz-adv-x="250" 
d="M158 -6q-55 4 -55 50q0 27 22.5 45t49.5 12q70 -15 70 -101q0 -38 -37 -83t-75 -59l-8 19q30 18 42.5 30.5t25.5 36.5t13 40v0q0 14 -18 13q-36 -2 -30 -3z" />
    <glyph glyph-name="eacute" unicode="&#xe9;" 
d="M-265 -175q-17 4 -29 4q-46 0 -46 -13q0 -9 25 -25q44 -29 90 -29q45 0 53 7q-46 45 -93 56zM-223 -299q-58 0 -102 37.5t-44 94.5q0 25 27 38q21 10 48 10q51 0 95 -52q31 -37 48 -54q54 27 54 60q0 24 -55 34q-22 3 -65 11q-70 25 -70 67q0 52 68 52q17 0 34.5 -10.5
t17.5 -26.5q0 -13 -13 -17q-15 17 -39 17q-46 0 -46 -16q0 -12 43 -25q28 -5 83 -19q68 -20 68 -69q0 -56 -39 -95q9 -12 22 -21q6 -8 6 -15t-6.5 -12.5t-12.5 -5.5q-5 0 -13 5q-1 1 -25 28q-28 -16 -84 -16z" />
    <glyph glyph-name="igrave" unicode="&#xec;" horiz-adv-x="455" 
d="M346 204q0 -74 -53 -125t-127 -49q-68 1 -115 36q-52 39 -52 101q0 28 33 37q-33 9 -33 37q0 62 52 101q47 35 115 36q72 2 126 -50t54 -124zM37 182q-3 1 -7.5 -3t-4.5 -11q0 -4 2 -10q25 -58 141 -58q58 0 100 22q54 28 54 80q0 53 -53 82q-44 24 -101 24
q-116 0 -141 -58q-2 -6 -2 -10q0 -7 5 -11t7 -3q17 42 71 42q32 0 55 -17.5t23 -48.5q0 -29 -23.5 -45.5t-53.5 -16.5q-55 0 -72 42zM114 232q-11 1 -21 1q-44 0 -45 -27q-1 -20 25 -28q18 -5 41 -2q46 6 48 30q-1 21 -48 26zM437 342q0 13 -10 25q-13 11 -26 11
q-16 0 -26 -10.5t-10 -25.5q0 -22 11 -84.5t11 -97.5v-382l-91 45v175h-36v-223l127 -75h28v460q0 34 11 96t11 86z" />
    <glyph glyph-name="iacute" unicode="&#xed;" horiz-adv-x="475" 
d="M328 -186v392q0 52 -54 80q-42 22 -100 22q-60 0 -103 -25q-49 -28 -49 -79q0 -46 53 -78q6 30 38 50q29 18 62 18q38 0 69 -22q35 -24 35 -61q0 -36 -33.5 -59.5t-70.5 -23.5q-74 0 -124.5 51t-50.5 125q0 73 49.5 123t122.5 51t126.5 -50t53.5 -124v-390h-24zM96 116
q0 -11 82 -11q83 0 83 9q0 16 -35 24q-25 6 -48 6q-82 0 -82 -28zM83 552q0 61 41.5 104t102.5 43q57 0 100 -35.5t50 -90.5q2 -14 -9 -14q-8 0 -11 11q-19 70 -128 70q-50 0 -88 -21q-43 -24 -40 -65q-1 -39 45 -65q39 -23 81 -23q49 0 96 -22q53 -25 68 -66
q45 -70 45 -178v-401q0 -99 -92 -99h-266q-46 0 -66 45q-12 27 -12 54q0 31 23 63q32 44 90 44q25 0 37 -7q18 -11 18 -30q0 -14 -10.5 -23.5t-24.5 -9.5q-10 0 -18 5q-24 15 -45 15q-17 0 -34.5 -16t-13.5 -32q5 -18 33 -29q22 -9 45 -9h244q48 0 55 28v402q0 89 -36 148
q-22 37 -58 50q-26 10 -76 10q-59 0 -102.5 42.5t-43.5 101.5z" />
    <glyph glyph-name="eth" unicode="&#xf0;" 
d="M-99 592q29 0 50.5 -20.5t21.5 -49.5t-21 -49.5t-50 -20.5t-49.5 20.5t-20.5 49.5t20 49.5t49 20.5zM-98 494q43 0 43 29t-43 29q-45 0 -43 -29t43 -29zM-353 700q62 2 106 -41.5t44 -106.5q0 -62 -43.5 -106t-105.5 -44t-106 44t-44 106t43 104t106 44zM-352 467
q48 0 84 18q45 23 45 67t-45 68q-37 20 -85 20q-49 0 -86 -19q-47 -25 -44 -69q-2 -45 45 -67q36 -18 86 -18z" />
    <glyph glyph-name="ntilde" unicode="&#xf1;" horiz-adv-x="726" 
d="M314 -300q-235 -1 -236 0q-78 0 -78 99v327q0 18 12 27q13 10 24 -2q48 -53 132 -53q62 0 105 25q50 29 47 83q3 50 -47 78q-43 24 -105 24q-86 0 -132 -51q-10 -12 -24 -2q-12 8 -1 26q58 97 159 97q74 0 124 -51t48 -125q-1 -52 52 -81q44 -24 100 -24q58 0 100 22
q54 28 54 80q0 50 -49 78q-42 24 -103 24q-7 0 -19.5 -2t-18.5 -2q-15 0 -27 11t-12 26q0 23 25 37q11 6 52 6q74 0 125 -51t51 -125t-53 -125t-127 -49q-114 3 -161 113q-18 -51 -63 -82t-99 -31q-90 0 -147 82v-311q0 -28 56 -28h240q15 0 26 -10t11 -25q0 -35 -41 -35z
" />
    <glyph glyph-name="oacute" unicode="&#xf3;" horiz-adv-x="1033" 
d="M491 378q74 0 124 -51t48 -125q-1 -52 52 -81q44 -24 100 -24q58 0 100 22q54 28 54 80q0 50 -49 78q-42 24 -103 24q-7 0 -19.5 -2t-18.5 -2q-15 0 -27 11t-12 26q0 23 25 37q11 6 52 6q74 0 125 -51t51 -125t-53 -125t-127 -49q-114 3 -161 113q-18 -51 -63 -82
t-99 -31q-112 0 -159 113q-18 -51 -63 -82t-99 -31q-99 0 -158 100q-11 18 1 26q14 10 24 -2q46 -51 133 -51q60 0 101 23q53 28 50 83q3 53 -51 80q-42 22 -100 22q-87 0 -133 -51q-10 -12 -24 -2q-12 8 -1 26q58 97 159 97q74 0 124 -51t48 -125q-1 -52 52 -81
q44 -24 100 -24q58 0 100 22q54 28 54 80q0 50 -49 78q-42 24 -103 24q-7 0 -19.5 -2t-18.5 -2q-15 0 -27 11t-12 26q0 23 25 37q13 7 47 7z" />
    <glyph glyph-name="odieresis" unicode="&#xf6;" horiz-adv-x="4" 
d="M-83 -143q0 -58 -43 -99.5t-101 -39.5q-49 1 -85 29q-17 13 -33.5 38.5t-16.5 45.5t28 26q-28 6 -28 26t17 47q16 23 33 37q37 29 85 29q59 0 101.5 -40t42.5 -99zM-330 -161q-3 1 -6.5 -2t-3.5 -9q0 -5 2 -8q19 -46 113 -46q46 0 80 17q43 22 43 64t-43 66
q-34 19 -80 19q-94 0 -113 -46q-2 -3 -2 -8q0 -6 3.5 -9t6.5 -2q12 33 56 33q26 0 44.5 -14t18.5 -39q0 -23 -19 -36t-43 -13q-45 0 -57 33zM-268 -121q-53 5 -53 -20q-2 -17 19 -22q15 -4 34 -2q37 5 38 24q-3 16 -38 20z" />
    <glyph glyph-name="divide" unicode="&#xf7;" horiz-adv-x="450" 
d="M288 296q0 -26 -18 -48q-21 -26 -56 -26q-34 0 -55.5 24t-20.5 50q1 31 22.5 53t53.5 22q27 0 50.5 -21t23.5 -54zM400 160l-364 2v49h361zM289 74q0 -26 -18 -48q-21 -26 -56 -26q-34 0 -55.5 24t-20.5 50q1 31 22.5 53t53.5 22q27 0 50.5 -21t23.5 -54zM240 296
q0 11 -9 18.5t-18 7.5q-26 0 -26 -26q0 -27 27 -27q26 0 26 27zM241 74q0 11 -9 18.5t-18 7.5q-26 0 -26 -26q0 -27 27 -27q26 0 26 27z" />
    <glyph glyph-name="oslash" unicode="&#xf8;" 
d="M-96 592q29 0 50.5 -20.5t21.5 -49.5t-21 -49.5t-50 -20.5t-49.5 20.5t-20.5 49.5t20 49.5t49 20.5zM-95 494q43 0 43 29t-43 29q-45 0 -43 -29t43 -29zM-347 615q0 -26 19 -33q11 -4 40 -4q26 0 52 -15.5t36 -38.5q9 -20 -12 -20q-5 0 -9 5q-11 23 -62 21q-34 -1 -42 -4
q-21 -8 -21 -36t21 -36q10 -4 42 -5q51 -2 62 21q6 8 16 3q12 -6 5 -17q-26 -54 -81 -54q-37 0 -62.5 26t-23.5 63q1 35 27 65q-24 22 -26 58q-1 34 21.5 57.5t56.5 23.5q50 0 74 -49q1 -2 1 -5q0 -12 -10 -12q-7 0 -10 4q-10 21 -56 19q-28 -1 -39 -5q-19 -7 -19 -32z" />
    <glyph glyph-name="uacute" unicode="&#xfa;" 
d="M-435 -293q-8 -4 -12 -4q-25 0 -25 24q0 20 37 50q52 43 52 74q0 43 -47 67q-37 18 -85 18q-50 0 -86 -18q-47 -22 -45 -67q-5 -53 77 -100q20 -11 9 -33q-8 -15 -23 -15q-8 0 -12 4q-69 45 -70 144q-1 62 43.5 105.5t106.5 43.5q48 0 88.5 -28.5t54.5 -74.5
q16 43 54 72.5t83 30.5q63 2 108 -41.5t45 -106.5q0 -62 -44 -105.5t-105 -43.5q-36 0 -45 5q-20 11 -20 31q0 12 10.5 21.5t22.5 9.5q4 0 18 -2q4 0 9 -1h5q48 0 84 19q45 24 45 68t-46 68q-37 19 -85 19q-34 0 -81 -27q-52 -31 -52 -62q0 -98 -69 -145z" />
    <glyph glyph-name="ucircumflex" unicode="&#xfb;" horiz-adv-x="518" 
d="M401 700q62 2 106 -41.5t44 -106.5q0 -62 -43.5 -106t-105.5 -44t-106 44t-44 106t43 104t106 44zM402 467q48 0 84 18q45 23 45 67q0 45 -45 69q-36 19 -85 19t-86 -19q-47 -25 -44 -69q-2 -44 46 -67q36 -18 85 -18zM79 615q0 -26 19 -33q11 -4 40 -4q26 0 52 -15.5
t36 -38.5q9 -20 -12 -20q-5 0 -9 5q-11 23 -62 21q-34 -1 -42 -4q-21 -8 -21 -36t21 -36q10 -4 42 -5q51 -2 62 21q6 8 16 3q12 -6 5 -17q-25 -54 -81 -54q-37 0 -62.5 26t-23.5 63q1 35 27 65q-24 22 -26 58q-1 34 21.5 57.5t56.5 23.5q50 0 74 -49q2 -2 2 -5
q0 -12 -11 -12q-7 0 -10 4q-10 21 -56 19q-28 -1 -39 -5q-19 -7 -19 -32zM58 670q0 -6 -18 -37t-18 -54v-733q0 -76 56 -76h250q58 0 58 66v257q-21 -37 -54 -60q-6 -4 -14 -4q-12 0 -21.5 10.5t-9.5 22.5q0 15 14 23q96 55 91 117q2 53 -53 79q-43 21 -101 21t-101 -21
q-55 -26 -53 -79q-5 -62 91 -117q14 -8 14 -23q0 -12 -9.5 -22.5t-21.5 -10.5q-8 0 -14 4q-39 26 -61 74q-21 45 -21 95q0 74 51 125t125 51t125.5 -51t50.5 -125q0 -17 -6 -47v-356q0 -99 -78 -99h-253q-77 0 -77 99v812q0 35 8 59v0q8 23 22 23q9 0 18.5 -7t9.5 -16z
M478 -178q0 -35 15 -54q6 -9 26 -23q15 -9 15 -21q0 -22 -23 -22q-42 0 -54 53q-4 18 -4 67l1 556h24v-556z" />
    <glyph glyph-name="udieresis" unicode="&#xfc;" horiz-adv-x="392" 
d="M189 408q-60 0 -102.5 42.5t-42.5 102.5t41 103t101 44t104.5 -43t44.5 -104q-23 6 -26 19q-17 66 -122 66q-46 0 -82 -18q-46 -23 -43 -65q-3 -64 99 -83q31 -6 31 -41q0 -11 -3 -23zM99 -26h82q59 0 118 32q17 9 30 9q34 0 34 -44v-172q0 -99 -75 -99q-1 -1 -210 0
q-35 0 -57 33q-21 30 -21 66q0 31 23 63q32 44 90 44q25 0 37 -7q18 -11 18 -30q0 -14 -10.5 -23.5t-24.5 -9.5q-10 0 -18 5q-24 15 -45 15q-17 0 -35 -16t-13 -32q5 -17 34 -28q25 -10 46 -10h186q28 0 36 3q19 5 19 25v145q0 32 -21 32q-13 0 -35 -11q-49 -24 -104 -24
h-82q-30 0 -54 24t-24 54q0 32 23 56t55 24h88q60 0 102 23q53 30 50 85q3 50 -47 78q-43 24 -105 24q-88 0 -134 -51q-10 -12 -24 -2q-12 8 -1 26q58 97 161 97q73 0 122.5 -51t49.5 -125q0 -73 -49.5 -123t-122.5 -51l-92 -1q-26 0 -26 -27q0 -10 9 -18t17 -8z" />
    <glyph glyph-name="thorn" unicode="&#xfe;" horiz-adv-x="736" 
d="M655 200q0 166 -91 199q-25 9 -74 9q-59 0 -102.5 42.5t-43.5 101.5q0 61 41.5 104t102.5 43q57 0 100 -35.5t50 -90.5q2 -14 -9 -14q-8 0 -11 11q-19 70 -128 70q-50 0 -88 -21q-43 -24 -40 -65q-1 -39 45 -65q39 -23 81 -23q49 0 96 -22q53 -25 68 -66q45 -55 45 -178
v-499h-42v499zM510 -300h-432q-78 0 -78 99q0 31 23 63q32 44 90 44q25 0 37 -7q18 -11 18 -30q0 -14 -10.5 -23.5t-24.5 -9.5q-10 0 -18 5q-24 15 -45 15q-17 0 -34.5 -16t-13.5 -32q5 -18 33 -29q22 -9 45 -9h410q47 0 53 28v434q0 44 -46 68q-36 18 -85 18q-50 0 -86 -20
q-43 -25 -43 -71q0 -9 -10 -9q-11 0 -11 9q0 46 -46 69q-35 19 -86 19q-50 0 -86 -19q-47 -24 -45 -69q-5 -51 63 -88q22 -12 12 -32q-7 -15 -19 -15q-6 0 -13 4q-62 32 -62 132q0 63 44 106.5t107 43.5q48 0 87 -27.5t54 -72.5q18 43 54.5 71t83.5 29q63 2 111 -41.5
t48 -106.5v-431q0 -49 -11 -68q-18 -31 -68 -31z" />
    <glyph glyph-name="ydieresis" unicode="&#xff;" horiz-adv-x="200" 
d="M92 -360l-36 3l-1 986l34 1z" />
    <glyph glyph-name="quoteright" unicode="&#x2019;" 
d="M-515 -300q-62 0 -106 44t-44 106t42.5 105t104.5 43q64 0 106 -44t42 -108q0 -44 46 -68q36 -18 85 -18t85 18q47 23 44 68q2 44 -45 68q-36 19 -85 19q-34 0 -58 -9q-12 -5 -26 2t-14 20q0 14 15 27q28 25 83 25q62 0 105.5 -44t43.5 -106t-42.5 -105t-103.5 -43
q-65 0 -110.5 42t-45.5 106q0 33 -47 63q-42 27 -77 27q-49 0 -85 -19q-47 -24 -44 -68q-2 -45 45 -68q37 -18 86 -18q31 0 55 8q13 4 26.5 -2t13.5 -20q0 -20 -30 -37q-25 -14 -65 -14z" />
  </font>
</defs>
</svg>
