<?xml version="1.0" standalone="no"?> <!DOCTYPE svg PUBLIC "-//W3C//DTD SVG 1.0//EN" "http://www.w3.org/TR/2001/REC-SVG-20010904/DTD/svg10.dtd" > <svg xmlns="http://www.w3.org/2000/svg" width="100%" height="100%">
<defs >
<font id="zawgyi-one" horiz-adv-x="910" ><font-face
    font-family="Zawgyi-One"
    units-per-em="2048"
    panose-1="2 11 6 4 3 5 4 4 2 4"
    ascent="2049"
    descent="-975"
    alphabetic="0" />
<missing-glyph horiz-adv-x="2048" d="M256 0V1536H1792V0H256ZM384 128H1664V1408H384V128Z" />
<glyph unicode=" " glyph-name="space" horiz-adv-x="640" />
<glyph unicode="!" glyph-name="exclam" horiz-adv-x="680" d="M452 1489L424 410H258L228 1489H452ZM442 0H238V211H442V0Z" />
<glyph unicode="&quot;" glyph-name="quotedbl" horiz-adv-x="822" d="M708 1556L665 977H533L490 1556H708ZM332 1556L289 977H157L114 1556H332Z" />
<glyph unicode="#" glyph-name="numbersign" horiz-adv-x="1490" d="M1348 932H1055L963 556H1231V421H928L823 0H694L799 421H529L424 0H295L400 421H142V556H435L527 932H259V1067H562L667 1489H796L691 1067H961L1066 1489H1195L1090 1067H1348V932ZM929 934H655L561
554H835L929 934Z" />
<glyph unicode="$" glyph-name="dollar" horiz-adv-x="1118" d="M1024 380Q1024 233 912 128T628 1V-361H514V-4Q406 -3 297 21T106 85V287H121Q200 228 299 191T514 144V576Q489 582 453 590T392 607Q242 648 178 731T113 935Q113 1077 224 1182T514 1304V1576H628V1306Q719
1303 816 1281T976 1231V1033H961Q891 1081 808 1117T628 1161V731Q661 724 689 717T739 704Q875 672 949 593T1024 380ZM514 746V1160Q424 1152 363 1102T302 961Q302 872 346 824T514 746ZM835 354Q835 448 787 493T628 561V146Q730 158 782 207T835 354Z" />
<glyph unicode="%" glyph-name="percent" horiz-adv-x="2000" d="M807 1076Q807 851 717 743T455 634Q281 634 192 744T102 1075Q102 1299 193 1408T455 1517Q629 1517 718 1407T807 1076ZM1473 1489L693 0H528L1308 1489H1473ZM1897 413Q1897 188 1807 80T1545
-29Q1371 -29 1282 81T1192 412Q1192 636 1283 745T1545 854Q1719 854 1808 744T1897 413ZM629 1076Q629 1228 594 1306T455 1384Q352 1384 316 1305T280 1075Q280 925 314 846T455 767Q558 767 593 846T629 1076ZM1719 413Q1719 565 1684 643T1545 721Q1442 721
1406 642T1370 412Q1370 262 1404 183T1545 104Q1648 104 1683 183T1719 413Z" />
<glyph unicode="&amp;" glyph-name="ampersand" horiz-adv-x="1380" d="M1445 0H1189L985 213Q883 83 776 26T532 -31Q330 -31 199 90T67 409Q67 495 91 562T155 683Q194 735 245 774T343 843Q242 911 192 986T142 1175Q142 1246 170 1306T245 1413Q293 1460 369
1490T537 1520Q703 1520 808 1433T913 1211Q913 1162 901 1110T855 1008Q822 959 769 916T626 841L978 479Q992 561 995 657T998 909H1193V813Q1193 717 1169 597T1088 368L1445 0ZM898 301L438 772Q413 756 388 734T333 668Q309 633 291 577T272 457Q272 315 356
224T585 132Q681 132 758 172T898 301ZM532 912Q588 931 624 963T681 1033Q699 1068 708 1107T717 1191Q717 1288 661 1341T529 1394Q440 1394 389 1334T338 1184Q338 1144 345 1116T377 1049Q398 1018 435 983T532 912Z" />
<glyph unicode="&apos;" glyph-name="quotesingle" horiz-adv-x="432" d="M327 1556L284 977H148L105 1556H327Z" />
<glyph unicode="(" glyph-name="parenleft" horiz-adv-x="784" d="M710 -412H481Q307 -205 208 26T108 572Q108 880 206 1114T481 1556H710V1546Q629 1473 556 1378T419 1155Q359 1032 322 884T284 572Q284 401 320 259T419 -11Q479 -134 556 -233T710 -402V-412Z" />
<glyph unicode=")" glyph-name="parenright" horiz-adv-x="784" d="M676 572Q676 263 577 29T303 -412H74V-402Q151 -333 229 -233T365 -11Q427 118 463 261T500 572Q500 737 463 884T365 1155Q304 1279 227 1378T74 1546V1556H303Q477 1349 576 1116T676 572Z" />
<glyph unicode="*" glyph-name="asterisk" horiz-adv-x="1118" d="M1007 887L942 777L615 994L622 630H497L503 994L178 776L112 886L466 1093L112 1300L178 1410L504 1191L497 1556H622L614 1191L942 1409L1007 1299L653 1094L1007 887Z" />
<glyph unicode="+" glyph-name="plus" horiz-adv-x="1490" d="M1333 572H828V67H662V572H157V732H662V1237H828V732H1333V572Z" />
<glyph unicode="," glyph-name="comma" horiz-adv-x="620" d="M500 285L220 -370H74L250 285H500Z" />
<glyph unicode="-" glyph-name="hyphen" horiz-adv-x="744" d="M654 561H90V742H654V561Z" />
<glyph unicode="." glyph-name="period" horiz-adv-x="620" d="M429 0H190V285H429V0Z" />
<glyph unicode="/" glyph-name="slash" horiz-adv-x="783" d="M728 1556L145 -324H-24L556 1556H728Z" />
<glyph unicode="0" glyph-name="zero" horiz-adv-x="1118" d="M1035 745Q1035 344 919 157T559 -31Q313 -31 198 160T83 743Q83 1146 199 1332T559 1519Q805 1519 920 1326T1035 745ZM779 291Q808 365 820 478T832 745Q832 898 820 1011T778 1199Q748 1275 696
1314T559 1354Q476 1354 423 1315T338 1197Q308 1121 297 1005T286 743Q286 587 295 482T337 294Q366 217 419 176T559 134Q642 134 695 173T779 291Z" />
<glyph unicode="1" glyph-name="one" horiz-adv-x="1118" d="M952 0H226V152H496V1150H226V1286Q379 1286 451 1329T533 1494H688V152H952V0Z" />
<glyph unicode="2" glyph-name="two" horiz-adv-x="1118" d="M1028 0H109V209Q208 303 296 389T468 568Q638 755 700 867T762 1100Q762 1162 743 1209T689 1287Q654 1317 608 1332T507 1347Q454 1347 400 1334T295 1300Q253 1283 214 1259T151 1218H140V1430Q202
1461 312 1490T522 1520Q730 1520 848 1410T966 1110Q966 1023 946 949T889 812Q852 747 800 683T690 557Q596 455 481 345T296 171H1028V0Z" />
<glyph unicode="3" glyph-name="three" horiz-adv-x="1118" d="M511 1347Q457 1347 403 1334T297 1300Q249 1280 214 1258T150 1217H138V1428Q203 1463 314 1491T527 1520Q628 1520 703 1500T840 1436Q906 1388 939 1320T973 1161Q973 1038 892 945T698 827V813Q745
804 798 782T898 717Q944 674 973 607T1002 442Q1002 341 968 257T870 107Q805 39 713 4T504 -31Q392 -31 282 -4T97 61V272H111Q174 226 280 184T492 142Q553 142 614 161T717 225Q757 269 778 322T799 456Q799 537 776 589T710 671Q668 701 611 712T486 724H401V890H467Q602
890 686 954T771 1140Q771 1196 749 1236T693 1301Q655 1327 609 1337T511 1347Z" />
<glyph unicode="4" glyph-name="four" horiz-adv-x="1118" d="M1067 512H890V0H698V512H40V722L706 1489H890V672H1067V512ZM698 672V1254L196 672H698Z" />
<glyph unicode="5" glyph-name="five" horiz-adv-x="1118" d="M1011 474Q1011 366 977 274T880 115Q817 47 724 8T514 -31Q407 -31 304 -8T124 54V265H138Q161 248 204 227T299 186Q358 165 407 154T517 142Q577 142 634 163T732 233Q769 277 788 336T808 475Q808
554 787 605T724 689Q681 727 619 742T479 758Q398 758 316 746T185 722V1489H1002V1314H378V918Q414 922 449 924T513 926Q627 926 706 907T858 833Q932 777 971 693T1011 474Z" />
<glyph unicode="6" glyph-name="six" horiz-adv-x="1118" d="M1051 483Q1051 368 1013 271T911 109Q844 40 761 5T578 -31Q477 -31 395 3T249 104Q172 185 129 320T85 654Q85 848 125 1004T248 1277Q329 1390 457 1453T753 1517Q803 1517 846 1512T922 1496V1305H913Q886
1320 835 1332T726 1345Q540 1345 426 1220T290 847Q361 897 436 924T600 951Q687 951 752 934T889 863Q971 801 1011 706T1051 483ZM848 475Q848 567 824 629T746 735Q707 767 658 777T556 787Q486 787 420 766T290 705Q288 683 287 663T286 611Q286 456 316 361T392
217Q435 170 480 151T579 132Q699 132 773 218T848 475Z" />
<glyph unicode="7" glyph-name="seven" horiz-adv-x="1118" d="M1044 1266L400 0H187L869 1314H99V1489H1044V1266Z" />
<glyph unicode="8" glyph-name="eight" horiz-adv-x="1118" d="M811 1142Q811 1242 744 1309T558 1376Q449 1376 380 1316T310 1154Q310 1080 345 1029T452 937Q483 920 546 890T662 843Q749 910 780 980T811 1142ZM839 396Q839 488 803 542T664 652Q630 671 574
693T446 745Q363 690 319 610T275 426Q275 291 356 203T561 115Q687 115 763 190T839 396ZM559 -34Q448 -34 357 -1T202 94Q139 154 107 236T74 411Q74 532 138 633T326 795V801Q216 865 163 941T110 1131Q110 1299 237 1411T559 1523Q762 1523 884 1417T1007 1144Q1007
1044 949 946T780 793V787Q910 726 977 639T1044 415Q1044 224 906 95T559 -34Z" />
<glyph unicode="9" glyph-name="nine" horiz-adv-x="1118" d="M832 877Q832 1029 804 1124T727 1272Q683 1320 638 1338T539 1356Q416 1356 343 1268T270 1013Q270 919 294 858T372 753Q410 722 458 712T561 701Q625 701 699 723T828 783Q829 798 830 822T832
877ZM67 1005Q67 1120 104 1215T207 1379Q269 1445 358 1482T540 1519Q643 1519 726 1485T871 1385Q948 1303 990 1170T1033 834Q1033 649 992 484T869 209Q783 93 663 32T365 -29Q325 -29 280 -25T196 -8V183H206Q231 169 284 156T392 143Q588 143 700 272T827
641Q747 587 675 562T517 537Q434 537 366 555T229 625Q149 686 108 779T67 1005Z" />
<glyph unicode=":" glyph-name="colon" horiz-adv-x="724" d="M482 832H243V1117H482V832ZM482 0H243V285H482V0Z" />
<glyph unicode=";" glyph-name="semicolon" horiz-adv-x="724" d="M482 832H243V1117H482V832ZM548 285L268 -370H122L298 285H548Z" />
<glyph unicode="&lt;" glyph-name="less" horiz-adv-x="1490" d="M1275 79L201 592V712L1275 1225V1047L442 652L1275 257V79Z" />
<glyph unicode="=" glyph-name="equal" horiz-adv-x="1490" d="M1298 782H192V942H1298V782ZM1298 362H192V522H1298V362Z" />
<glyph unicode="&gt;" glyph-name="greater" horiz-adv-x="1490" d="M1289 592L215 79V257L1048 652L215 1047V1225L1289 712V592Z" />
<glyph unicode="?" glyph-name="question" horiz-adv-x="970" d="M912 1139Q912 1041 880 965T793 830Q739 772 671 723T526 628V400H347V705Q403 739 477 786T594 875Q648 926 678 986T708 1124Q708 1237 637 1292T452 1348Q352 1348 264 1315T120 1245H109V1449Q176
1476 278 1497T471 1519Q676 1519 794 1415T912 1139ZM542 0H338V211H542V0Z" />
<glyph unicode="@" glyph-name="at" horiz-adv-x="1862" d="M1739 663Q1739 524 1701 395T1592 157H1171L1146 273Q1079 216 1023 183T869 149Q715 149 617 272T519 631Q519 866 639 997T915 1128Q987 1128 1039 1110T1144 1062V1110H1303V268H1530Q1568 339 1584
452T1601 657Q1601 984 1435 1183T956 1383Q660 1383 468 1168T275 645Q275 315 462 111T951 -94Q1032 -94 1121 -83T1291 -48V-190Q1207 -210 1121 -218T950 -226Q596 -226 364 17T132 647Q132 1014 371 1266T955 1518Q1323 1518 1531 1281T1739 663ZM1142 408V926Q1086
955 1039 967T941 980Q828 980 759 896T690 634Q690 474 742 389T908 304Q969 304 1028 333T1142 408Z" />
<glyph unicode="A" glyph-name="A" horiz-adv-x="1228" d="M-10 0L492 1489H736L1238 0H1029L894 416H325L190 0H-10ZM839 585L609 1287L380 585H839Z" />
<glyph unicode="B" glyph-name="B" horiz-adv-x="1207" d="M1161 457Q1161 346 1119 261T1006 121Q922 55 826 28T578 0H151V1489H546Q705 1489 784 1479T937 1429Q1017 1386 1054 1317T1091 1153Q1091 1048 1036 965T882 835V827Q1015 791 1088 696T1161 457ZM885
1125Q885 1179 867 1218T809 1281Q761 1308 702 1314T539 1320H349V884H574Q667 884 711 893T802 933Q847 962 866 1009T885 1125ZM955 449Q955 533 931 587T834 680Q787 705 732 712T574 719H349V169H510Q640 169 715 181T847 232Q903 271 929 320T955 449Z" />
<glyph unicode="C" glyph-name="C" horiz-adv-x="1230" d="M733 -27Q587 -27 465 22T253 168Q164 265 115 410T66 743Q66 930 113 1069T252 1311Q341 1411 463 1463T736 1516Q811 1516 876 1505T998 1477Q1046 1462 1096 1440T1196 1390V1151H1180Q1154 1175 1113
1209T1013 1276Q956 1307 889 1327T734 1347Q639 1347 554 1308T405 1193Q342 1117 307 1002T272 743Q272 590 309 480T410 293Q472 219 556 182T734 144Q820 144 893 165T1023 218Q1078 249 1118 281T1181 337H1196V101Q1147 78 1104 57T998 16Q933 -5 878 -16T733
-27Z" />
<glyph unicode="D" glyph-name="D" horiz-adv-x="1389" d="M1325 743Q1325 539 1243 375T1021 119Q908 48 792 24T494 0H151V1489H490Q700 1489 819 1458T1023 1371Q1167 1276 1246 1119T1325 743ZM1119 746Q1119 918 1062 1039T893 1229Q814 1277 724 1298T500
1319H349V170H500Q632 170 731 191T912 269Q1015 339 1067 455T1119 746Z" />
<glyph unicode="E" glyph-name="E" horiz-adv-x="1149" d="M151 0V1489H1082V1313H349V905H1032V729H349V176H1082V0H151Z" />
<glyph unicode="F" glyph-name="F" horiz-adv-x="1068" d="M1042 1313H349V893H1013V717H349V0H151V1489H1042V1313Z" />
<glyph unicode="G" glyph-name="G" horiz-adv-x="1367" d="M774 -29Q616 -29 485 19T260 165Q166 264 116 410T66 746Q66 926 116 1068T261 1312Q352 1410 485 1463T776 1516Q851 1516 920 1505T1052 1475Q1102 1460 1163 1434T1263 1388V1149H1246Q1209 1182
1170 1211T1058 1275Q998 1305 920 1325T752 1345Q537 1345 405 1183T272 752Q272 602 307 490T408 300Q472 223 562 183T766 142Q850 142 933 154T1073 190V575H729V749H1269V99Q1231 82 1168 56T1049 15Q976 -7 917 -18T774 -29Z" />
<glyph unicode="H" glyph-name="H" horiz-adv-x="1383" d="M1232 0H1034V729H349V0H151V1489H349V905H1034V1489H1232V0Z" />
<glyph unicode="I" glyph-name="I" horiz-adv-x="764" d="M671 0H93V152H283V1337H93V1489H671V1337H481V152H671V0Z" />
<glyph unicode="J" glyph-name="J" horiz-adv-x="853" d="M712 387Q712 191 593 85T272 -21Q224 -21 144 -13T9 8V197H20Q61 183 121 166T245 149Q337 149 391 170T472 230Q499 270 506 328T514 462V1331H199V1489H712V387Z" />
<glyph unicode="K" glyph-name="K" horiz-adv-x="1204" d="M1236 0H979L436 693L349 595V0H151V1489H349V804L959 1489H1200L584 824L1236 0Z" />
<glyph unicode="L" glyph-name="L" horiz-adv-x="1019" d="M1014 0H151V1489H349V176H1014V0Z" />
<glyph unicode="M" glyph-name="M" horiz-adv-x="1578" d="M1427 0H1229V1283L841 410H721L336 1283V0H151V1489H421L793 660L1152 1489H1427V0Z" />
<glyph unicode="N" glyph-name="N" horiz-adv-x="1367" d="M1216 0H994L336 1284V0H151V1489H432L1031 310V1489H1216V0Z" />
<glyph unicode="O" glyph-name="O" horiz-adv-x="1449" d="M1204 1318Q1289 1220 1336 1075T1383 744Q1383 563 1337 417T1204 172Q1113 68 992 19T724 -31Q573 -31 452 20T244 172Q158 271 112 416T66 744Q66 932 112 1074T245 1318Q331 1417 452 1468T724 1520Q876
1520 998 1467T1204 1318ZM1177 744Q1177 892 1145 1006T1055 1195Q996 1272 913 1310T725 1349Q617 1349 537 1312T394 1195Q335 1119 304 1004T272 744Q272 451 395 296T725 140Q932 140 1054 295T1177 744Z" />
<glyph unicode="P" glyph-name="P" horiz-adv-x="1129" d="M1091 1040Q1091 943 1057 857T961 709Q884 633 780 594T517 555H349V0H151V1489H525Q657 1489 750 1467T914 1396Q997 1339 1044 1252T1091 1040ZM885 1035Q885 1112 859 1169T778 1262Q731 1293 669
1306T513 1319H349V724H484Q604 724 678 743T801 813Q845 858 865 911T885 1035Z" />
<glyph unicode="Q" glyph-name="Q" horiz-adv-x="1449" d="M1388 -364Q1334 -378 1275 -385T1156 -392Q989 -392 885 -298T770 -30Q757 -30 745 -30T724 -30Q573 -30 452 21T244 172Q158 271 112 416T66 744Q66 932 112 1074T245 1318Q331 1417 452 1468T724 1520Q876
1520 998 1467T1204 1318Q1289 1220 1336 1075T1383 744Q1383 455 1270 267T961 12Q966 -44 980 -88T1018 -159Q1045 -190 1083 -204T1189 -219Q1229 -219 1283 -207T1361 -184H1388V-364ZM1177 744Q1177 892 1145 1006T1055 1195Q996 1272 913 1310T725 1349Q617
1349 537 1312T394 1195Q335 1119 304 1004T272 744Q272 451 395 295T725 139Q932 139 1054 295T1177 744Z" />
<glyph unicode="R" glyph-name="R" horiz-adv-x="1271" d="M1304 0H1047L575 592H349V0H151V1489H535Q663 1489 749 1475T914 1410Q992 1360 1037 1281T1083 1085Q1083 921 1000 811T774 648L1304 0ZM876 1070Q876 1135 853 1185T782 1268Q740 1296 684 1307T545
1319H349V757H523Q608 757 676 772T792 834Q835 876 855 934T876 1070Z" />
<glyph unicode="S" glyph-name="S" horiz-adv-x="1141" d="M566 -27Q404 -27 291 6T77 89V337H91Q189 245 313 195T552 144Q716 144 800 212T884 393Q884 482 840 538T700 621Q631 641 574 654T431 689Q354 709 293 740T185 821Q139 870 114 936T88 1090Q88 1271
229 1393T589 1516Q714 1516 825 1491T1032 1420V1183H1017Q946 1248 835 1296T602 1345Q464 1345 379 1281T294 1111Q294 1016 344 960T489 878Q552 861 643 840T794 800Q948 753 1019 658T1090 424Q1090 337 1055 252T955 108Q883 43 793 8T566 -27Z" />
<glyph unicode="T" glyph-name="T" horiz-adv-x="1196" d="M499 0V1313H-1V1489H1197V1313H697V0H499Z" />
<glyph unicode="U" glyph-name="U" horiz-adv-x="1343" d="M671 -31Q540 -31 442 3T275 106Q197 184 165 292T133 560V1489H331V560Q331 457 344 387T395 260Q435 200 503 169T671 138Q764 138 836 169T948 260Q985 317 998 386T1012 555V1489H1210V560Q1210 405
1179 294T1068 106Q997 37 903 3T671 -31Z" />
<glyph unicode="V" glyph-name="V" horiz-adv-x="1222" d="M1230 1489L718 0H504L-8 1489H204L616 253L1028 1489H1230Z" />
<glyph unicode="W" glyph-name="W" horiz-adv-x="1847" d="M1821 1489L1447 0H1224L921 1236L625 0H407L26 1489H229L529 251L827 1489H1028L1329 239L1627 1489H1821Z" />
<glyph unicode="X" glyph-name="X" horiz-adv-x="1189" d="M1181 0H954L591 596L222 0H8L481 745L22 1489H248L604 904L965 1489H1180L714 755L1181 0Z" />
<glyph unicode="Y" glyph-name="Y" horiz-adv-x="1180" d="M1193 1489L690 659V0H492V638L-11 1489H209L593 832L983 1489H1193Z" />
<glyph unicode="Z" glyph-name="Z" horiz-adv-x="1145" d="M1100 0H60V184L857 1313H96V1489H1080V1310L274 176H1100V0Z" />
<glyph unicode="[" glyph-name="bracketleft" horiz-adv-x="784" d="M686 -392H166V1556H686V1413H341V-249H686V-392Z" />
<glyph unicode="\" glyph-name="backslash" horiz-adv-x="783" d="M804 -324H635L52 1556H224L804 -324Z" />
<glyph unicode="]" glyph-name="bracketright" horiz-adv-x="784" d="M618 -392H98V-249H443V1413H98V1556H618V-392Z" />
<glyph unicode="^" glyph-name="asciicircum" horiz-adv-x="1490" d="M1357 684H1159L744 1309L330 682H133L682 1489H808L1357 684Z" />
<glyph unicode="_" glyph-name="underscore" horiz-adv-x="1118" d="M1134 -300H-16V-170H1134V-300Z" />
<glyph unicode="`" glyph-name="grave" horiz-adv-x="1118" d="M670 1302H521L248 1676H491L670 1302Z" />
<glyph unicode="a" glyph-name="a" horiz-adv-x="1075" d="M760 275V585Q693 579 591 569T425 539Q350 516 301 469T252 336Q252 240 306 191T464 142Q553 142 625 180T760 275ZM760 119Q737 102 699 72T624 23Q574 -3 528 -17T397 -31Q328 -31 266 -5T157 68Q112
114 85 181T58 324Q58 440 107 521T262 651Q356 694 484 710T760 735V771Q760 837 740 877T684 940Q648 963 596 970T489 978Q424 978 336 959T160 902H149V1093Q201 1108 298 1126T490 1144Q605 1144 684 1126T826 1061Q887 1015 917 942T947 764V0H760V119Z"
/>
<glyph unicode="b" glyph-name="b" horiz-adv-x="1132" d="M879 562Q879 762 818 865T622 969Q545 969 467 933T324 842V202Q395 167 450 153T571 138Q715 138 797 240T879 562ZM1073 577Q1073 303 940 136T607 -31Q516 -31 452 -9T324 52L312 0H136V1556H324V1000Q395
1064 478 1106T666 1148Q855 1148 964 997T1073 577Z" />
<glyph unicode="c" glyph-name="c" horiz-adv-x="945" d="M580 -25Q465 -25 369 10T204 118Q135 190 97 299T59 557Q59 704 98 811T204 991Q270 1064 368 1103T580 1143Q672 1143 757 1117T910 1057V846H899Q879 863 848 885T771 930Q732 950 679 965T577 980Q431
980 343 870T254 557Q254 359 339 249T577 138Q669 138 752 176T899 274H910V63Q882 50 840 32T764 4Q716 -10 678 -17T580 -25Z" />
<glyph unicode="d" glyph-name="d" horiz-adv-x="1132" d="M996 0H808V114Q764 77 732 53T657 9Q617 -10 574 -20T474 -31Q383 -31 306 7T174 118Q119 192 89 300T59 550Q59 697 97 804T202 992Q263 1065 349 1106T531 1148Q615 1148 677 1130T808 1072V1556H996V0ZM808
272V916Q738 950 683 963T562 976Q417 976 335 868T253 554Q253 357 316 253T518 148Q592 148 667 181T808 272Z" />
<glyph unicode="e" glyph-name="e" horiz-adv-x="1078" d="M621 -26Q354 -26 207 124T59 552Q59 825 202 986T576 1148Q680 1148 760 1118T900 1024Q960 960 992 868T1024 641V539H250Q250 344 348 241T619 138Q681 138 740 152T848 188Q899 211 934 232T992 273H1003V68Q970
55 921 36T833 5Q778 -10 734 -18T621 -26ZM841 683Q839 759 823 814T777 907Q744 949 693 971T565 993Q490 993 438 971T342 905Q300 861 278 808T250 683H841Z" />
<glyph unicode="f" glyph-name="f" horiz-adv-x="652" d="M724 1376H714Q689 1385 642 1393T558 1402Q439 1402 389 1349T338 1155V1117H649V961H344V0H156V961H29V1117H156V1154Q156 1356 253 1461T531 1566Q583 1566 633 1561T724 1548V1376Z" />
<glyph unicode="g" glyph-name="g" horiz-adv-x="1132" d="M808 303V916Q738 950 679 964T560 979Q417 979 335 874T253 573Q253 387 315 290T518 193Q591 193 668 222T808 303ZM176 -179Q195 -187 232 -200T316 -226Q368 -239 412 -247T508 -255Q595 -255 655
-232T750 -168Q782 -127 795 -73T808 50V148Q732 82 659 51T476 19Q285 19 172 161T59 569Q59 708 98 815T203 998Q266 1070 352 1109T530 1148Q617 1148 680 1128T808 1069L819 1117H996V127Q996 -157 872 -290T493 -423Q411 -423 326 -410T166 -375V-179H176Z"
/>
<glyph unicode="h" glyph-name="h" horiz-adv-x="1142" d="M1014 0H826V636Q826 713 819 779T790 886Q767 928 726 948T614 969Q544 969 470 932T324 834V0H136V1556H324V993Q408 1068 490 1108T663 1148Q828 1148 921 1040T1014 725V0Z" />
<glyph unicode="i" glyph-name="i" horiz-adv-x="468" d="M328 0H140V1117H328V0ZM341 1304H127V1499H341V1304Z" />
<glyph unicode="j" glyph-name="j" horiz-adv-x="577" d="M441 -32Q441 -223 339 -323T56 -423Q25 -423 -13 -420T-90 -411V-243H-79Q-57 -248 -31 -252T20 -257Q95 -257 143 -239T216 -180Q238 -144 245 -89T253 45V961H51V1117H441V-32ZM442 1304H228V1499H442V1304Z" />
<glyph unicode="k" glyph-name="k" horiz-adv-x="1020" d="M1062 0H815L398 539L324 467V0H136V1556H324V645L766 1117H1000L541 650L1062 0Z" />
<glyph unicode="l" glyph-name="l" horiz-adv-x="468" d="M328 0H140V1556H328V0Z" />
<glyph unicode="m" glyph-name="m" horiz-adv-x="1720" d="M1404 0V646Q1404 723 1398 788T1373 891Q1353 931 1316 950T1216 969Q1158 969 1092 934T954 831Q955 814 956 791T958 735V0H770V646Q770 723 764 788T739 891Q719 931 682 950T582 969Q521 969 454
931T324 834V0H136V1117H324V993Q398 1067 470 1107T630 1148Q729 1148 805 1103T922 955Q1007 1050 1088 1099T1264 1148Q1336 1148 1395 1126T1498 1053Q1543 1002 1567 926T1592 735V0H1404Z" />
<glyph unicode="n" glyph-name="n" horiz-adv-x="1142" d="M1014 0H826V636Q826 713 819 779T790 886Q767 928 726 948T614 969Q544 969 470 932T324 834V0H136V1117H324V993Q408 1068 490 1108T663 1148Q828 1148 921 1040T1014 725V0Z" />
<glyph unicode="o" glyph-name="o" horiz-adv-x="1112" d="M1055 558Q1055 276 919 123T557 -31Q324 -31 191 127T57 558Q57 838 194 993T557 1148Q783 1148 919 994T1055 558ZM861 558Q861 775 782 880T557 986Q410 986 331 881T251 558Q251 348 330 240T557
131Q702 131 781 237T861 558Z" />
<glyph unicode="p" glyph-name="p" horiz-adv-x="1132" d="M1073 588Q1073 309 940 144T602 -22Q519 -22 455 -3T324 56V-412H136V1117H324V1000Q394 1063 479 1105T666 1148Q858 1148 965 996T1073 588ZM879 567Q879 758 818 863T620 969Q540 969 466 934T324
842V209Q398 173 450 160T571 147Q717 147 798 254T879 567Z" />
<glyph unicode="q" glyph-name="q" horiz-adv-x="1132" d="M996 -412H808V122Q726 47 648 13T475 -22Q285 -22 172 130T59 555Q59 699 98 809T203 995Q265 1068 351 1108T530 1148Q616 1148 679 1128T808 1069L820 1117H996V-412ZM808 280V916Q737 951 681 965T561
979Q413 979 333 872T253 564Q253 368 317 263T516 157Q595 157 670 191T808 280Z" />
<glyph unicode="r" glyph-name="r" horiz-adv-x="738" d="M728 915H718Q697 921 674 922T617 924Q541 924 466 891T324 793V0H136V1117H324V951Q427 1042 503 1079T652 1117Q681 1117 695 1116T728 1111V915Z" />
<glyph unicode="s" glyph-name="s" horiz-adv-x="914" d="M438 -27Q326 -27 229 3T67 67V278H77Q101 259 133 236T220 188Q268 166 325 149T445 132Q490 132 541 142T617 169Q652 192 667 218T683 296Q683 363 647 397T517 454Q481 463 423 475T316 501Q188 538
130 615T72 803Q72 954 186 1049T489 1144Q582 1144 676 1121T834 1063V862H824Q752 919 664 952T485 985Q392 985 328 946T264 828Q264 758 302 724T424 667Q466 656 517 646T626 621Q750 590 812 518T875 322Q875 250 847 186T763 75Q703 25 628 -1T438 -27Z"
/>
<glyph unicode="t" glyph-name="t" horiz-adv-x="685" d="M474 -22Q320 -22 234 65T148 342V961H21V1117H148V1438H336V1117H682V961H336V430Q336 345 339 299T362 213Q379 178 417 161T520 143Q566 143 609 156T671 179H682V10Q629 -5 575 -13T474 -22Z" />
<glyph unicode="u" glyph-name="u" horiz-adv-x="1142" d="M1006 0H818V124Q731 48 653 9T479 -31Q406 -31 342 -7T229 69Q181 121 155 200T128 392V1117H316V481Q316 392 322 334T352 231Q375 188 414 168T528 148Q597 148 675 187T818 283V1117H1006V0Z" />
<glyph unicode="v" glyph-name="v" horiz-adv-x="1020" d="M1014 1117L593 0H424L6 1117H209L515 255L818 1117H1014Z" />
<glyph unicode="w" glyph-name="w" horiz-adv-x="1520" d="M1490 1117L1207 0H1033L760 861L489 0H316L30 1117H226L423 252L688 1117H843L1115 252L1301 1117H1490Z" />
<glyph unicode="x" glyph-name="x" horiz-adv-x="1014" d="M1004 0H773L502 422L223 0H10L398 554L14 1117H245L514 699L790 1117H1004L618 567L1004 0Z" />
<glyph unicode="y" glyph-name="y" horiz-adv-x="1020" d="M1014 1117L413 -412H212L412 54L6 1117H209L514 290L818 1117H1014Z" />
<glyph unicode="z" glyph-name="z" d="M870 0H49V139L633 962H73V1117H859V983L272 157H870V0Z" />
<glyph unicode="{" glyph-name="braceleft" horiz-adv-x="984" d="M886 -392H770Q591 -392 490 -294T388 -5V144Q388 213 375 283T325 403Q288 453 229 478T81 504H60V660H81Q169 660 228 685T325 761Q362 811 375 881T388 1020V1169Q388 1359 489 1457T770 1556H886V1418H806Q747
1418 704 1406T630 1365Q598 1335 583 1282T567 1152V977Q567 895 548 839T492 734Q459 690 406 654T296 594V570Q353 547 405 511T492 430Q529 381 548 325T567 187V12Q567 -65 582 -118T630 -201Q660 -230 703 -242T806 -254H886V-392Z" />
<glyph unicode="|" glyph-name="bar" horiz-adv-x="783" d="M475 -392H308V1556H475V-392Z" />
<glyph unicode="}" glyph-name="braceright" horiz-adv-x="984" d="M924 504H903Q815 504 756 479T659 403Q622 353 609 283T596 144V-5Q596 -195 495 -293T214 -392H98V-254H178Q237 -254 280 -242T354 -201Q386 -171 401 -118T417 12V187Q417 269 436 325T492
430Q525 474 578 510T688 570V594Q631 617 578 653T492 734Q455 783 436 839T417 977V1152Q417 1229 402 1282T354 1365Q323 1394 280 1406T178 1418H98V1556H214Q393 1556 494 1458T596 1169V1020Q596 951 609 881T659 761Q696 711 755 686T903 660H924V504Z"
/>
<glyph unicode="~" glyph-name="asciitilde" horiz-adv-x="1490" d="M1356 927Q1354 825 1335 731T1275 561Q1234 488 1173 442T1014 396Q957 396 912 411T831 452Q796 477 764 512T707 577Q680 610 654 644T603 704Q576 732 547 749T481 766Q431 766 398 740T343
661Q322 611 314 541T302 395H134Q136 499 155 594T214 761Q254 837 320 881T476 926Q536 926 581 910T662 869Q697 844 726 812T784 745Q806 718 836 679T888 618Q917 588 946 572T1009 556Q1059 556 1093 584T1147 660Q1167 710 1176 777T1188 927H1356Z" />
</font>
</defs>
</svg>
